Godzilla [CAM][Castellano][2014]




Un monstruo gigante radioactivo llamado Godzilla emerge de las profundidades dispuesto a sembrar el caos y a provocar la destrucción de la raza humana. Además, en paralelo, el monstruo más famoso del mundo se enfrenta a malvadas criaturas que, animadas por la arrogancia científica de la humanidad, amenazan nuestra propia existencia. ¡Sólo nos queda intentar sobrevivir!



Título: Godzilla
Título original: Godzilla
Dirección: Gareth Edwards
País: Estados Unidos
Año: 2014
Fecha de estreno: 16/05/2014
Duración: 123 min
Género: Aventuras, Acción, Fantástico
Reparto: Ken Watanabe, Bryan Cranston, Elizabeth Olsen, Juliette Binoche, Sally Hawkins, David Strathairn, Victor Rasuk, Aaron Taylor-Johnson, Brian Markinson, Al Sapienza
Web: Godzilla | Official Movie Site | Now Playing In Theaters
Distribuidora: Warner Bros. Pictures
Productora: Warner Bros. Pictures, Legendary Pictures

General
Format                                   : AVI
Format/Info                              : Audio Video Interleave
File size                                : 727 MiB
Duration                                 : 1h 52mn
Overall bit rate                         : 904 Kbps
Writing application                      : VirtualDubMod 1.5.10.2 (build 2540/release)
Writing library                          : VirtualDubMod build 2540/release

Video
ID                                       : 0
Format                                   : MPEG-4 Visual
Format profile                           : [email protected]
Format settings, BVOP                    : No
Format settings, QPel                    : No
Format settings, GMC                     : No warppoints
Format settings, Matrix                  : Default (H.263)
Codec ID                                 : FMP4
Duration                                 : 1h 52mn
Bit rate                                 : 701 Kbps
Width                                    : 720 pixels
Height                                   : 360 pixels
Display aspect ratio                     : 2.000
Frame rate                               : 29.970 fps
Color space                              : YUV
Chroma subsampling                       : 4:2:0
Bit depth                                : 8 bits
Scan type                                : Progressive
Compression mode                         : Lossy
Bits/(Pixel*Frame)                       : 0.090
Stream size                              : 563 MiB (77%)
Writing library                          : Lavc54.59.100

Audio
ID                                       : 1
Format                                   : MPEG Audio
Format version                           : Version 1
Format profile                           : Layer 3
Codec ID                                 : 55
Codec ID/Hint                            : MP3
Duration                                 : 1h 52mn
Bit rate mode                            : Constant
Bit rate                                 : 192 Kbps
Channel(s)                               : 2 channels
Sampling rate                            : 44.1 KHz
Compression mode                         : Lossy
Stream size                              : 154 MiB (21%)
Alignment                                : Split accross interleaves
Interleave, duration                     : 33 ms (1.00 video frame)
Interleave, preload duration             : 500 ms






http://www59.zippyshare.com/v/15111574/file.html
http://www45.zippyshare.com/v/35941175/file.html
http://www58.zippyshare.com/v/18531279/file.html
http://www34.zippyshare.com/v/14208432/file.html
[/size]
Godzilla [CAM][Castellano][2014]
0 Puntos Score: 0/10
Visitas: 10805 Favoritos: 2
5 Comentarios Godzilla [CAM][Castellano][2014]
Me vi esta pelicula en el cine, perfecta
Ese pap de Malcolm es un lokillo  
aunque tenga miles de personaje siempre sera el Pap?
Para dejar un comentario Registrate! o.. eres ya usuario? Accede!