Oculus [DVDSCR][VOSE][2014]




Kaylie Russell (Karen Gillan) es una mujer que hará todo lo posible por demostrar la inocencia de su hermano, acusado de asesinato. Kaylie está convencida de que su hermano no cometió ese crimen por voluntad propia, sino que algo o alguien le empujó a ella. En concreto, alguna fuerza sobrenatural. Demostrarlo será complicado, pero Kaylie no es de las que se rinden fácilmente.



Título: Oculus
Título original: Oculus
Dirección: Mike Flanagan
País: Estados Unidos
Año: 2013
Fecha de estreno: Próximamente
Duración: 104 min
Género: Terror
Reparto: Katee Sackhoff, Brenton Thwaites, Rory Cochrane, James Lafferty, Kate Siegel, Miguel Sandoval, Karen Gillan
Web: OCULUS | Now Playing | #SeeYourEvil
Distribuidora: Relativity Media
Productora: Blumhouse Productions, Intrepid Pictures, WWE Studios

General
Format                                   : MPEG-4
Format profile                           : Base Media / Version 2
Codec ID                                 : mp42
File size                                : 977 MiB
Duration                                 : 1h 42mn
Overall bit rate mode                    : Variable
Overall bit rate                         : 1 331 Kbps
Album                                    : Oculus.2014
Encoded date                             : UTC 2014-05-15 23:17:00
Tagged date                              : UTC 2014-05-15 23:37:01
Writing application                      : DVDFab

Video
ID                                       : 1
Format                                   : AVC
Format/Info                              : Advanced Video Codec
Format profile                           : [email protected]
Format settings, CABAC                   : Yes
Format settings, ReFrames                : 1 frame
Format settings, GOP                     : M=1, N=24
Codec ID                                 : avc1
Codec ID/Info                            : Advanced Video Coding
Duration                                 : 1h 42mn
Bit rate mode                            : Variable
Bit rate                                 : 1 204 Kbps
Width                                    : 1 280 pixels
Height                                   : 558 pixels
Display aspect ratio                     : 2.25:1
Frame rate mode                          : Variable
Frame rate                               : 23.976 fps
Minimum frame rate                       : 23.974 fps
Maximum frame rate                       : 23.981 fps
Color space                              : YUV
Chroma subsampling                       : 4:2:0
Bit depth                                : 8 bits
Scan type                                : Progressive
Bits/(Pixel*Frame)                       : 0.070
Stream size                              : 884 MiB (90%)
Writing library                          : x264 core
Encoded date                             : UTC 2014-05-15 23:17:01
Tagged date                              : UTC 2014-05-15 23:36:57
Color primaries                          : BT.709-5, BT.1361, IEC 61966-2-4, SMPTE RP177
Transfer characteristics                 : BT.709-5, BT.1361
Matrix coefficients                      : BT.709-5, BT.1361, IEC 61966-2-4 709, SMPTE RP177

Audio
ID                                       : 2
Format                                   : AAC
Format/Info                              : Advanced Audio Codec
Format profile                           : LC
Codec ID                                 : 40
Duration                                 : 1h 42mn
Bit rate mode                            : Variable
Bit rate                                 : 122 Kbps
Maximum bit rate                         : 152 Kbps
Channel(s)                               : 2 channels
Channel positions                        : Front: L R
Sampling rate                            : 48.0 KHz
Compression mode                         : Lossy
Stream size                              : 89.6 MiB (9%)
Encoded date                             : UTC 2014-05-15 23:17:01
Tagged date                              : UTC 2014-05-15 23:36:45

Text
ID                                       : 3
Format                                   : Apple text
Codec ID                                 : text
Duration                                 : 1h 42mn
Bit rate mode                            : Constant
Bit rate                                 : 0 bps
Stream size                              : 184 Bytes (0%)
Encoded date                             : UTC 2014-05-15 23:17:01
Tagged date                              : UTC 2014-05-15 23:37:01






http://www22.zippyshare.com/v/1867557/file.html
http://www52.zippyshare.com/v/84601495/file.html
http://www64.zippyshare.com/v/53431445/file.html
http://www21.zippyshare.com/v/32498592/file.html
http://www10.zippyshare.com/v/28700107/file.html
[/size]
Oculus [DVDSCR][VOSE][2014]
0 Puntos Score: 0/10
Visitas: 3892 Favoritos: 1
5 Comentarios Oculus [DVDSCR][VOSE][2014]
@xskebix amigo ayuda necesito un programa para baje las pel?
NO PUEDO DESCARGAR EL LINK 4 Y APARECE COMO DESPONIBLE
PORQUE? ME PODRIAS DESIR PORQUE
Para dejar un comentario Registrate! o.. eres ya usuario? Accede!