Winters Tale [HDRip 720p][Castellano][2014]




La ciudad de Nueva York está sumida en un invierno durísimo, con vientos gélidos, noches oscuras y cegadores luces blancas. Una noche, Peter Lake (Colin Farrell), intenta robar una mansión del Upper West Side. Aunque cree que la casa está vacía, no es así: la hija de la familia se encuentra en ella. Entonces empieza la historia de amor entre Peter, un irlandés de mediana de edad, con Beverly Penn (Jessica Brown Findlay), una joven que... se está muriendo poco a poco. Adaptación de la novela de Mark Helprin.



Titulo Original: Winter?s Tale
Titulo Latino: Winter?s Tale (Cuento de invierno)
Actores: Colin Farrell, Matt Bomer, Lucy Griffiths, Michael Patrick Crane
Año: 2014
Duración: 118 min.
País: USA
Género: Drama, Fantasy, Mystery

General
Format                                   : AVI
Format/Info                              : Audio Video Interleave
Format profile                           : OpenDML
File size                                : 1.54 GiB
Duration                                 : 1h 53mn
Overall bit rate                         : 1 953 Kbps
Writing application                      : Lavf52.84.0

Video
ID                                       : 0
Format                                   : MPEG-4 Visual
Codec ID                                 : FMP4
Duration                                 : 1h 53mn
Bit rate                                 : 1 811 Kbps
Width                                    : 1 280 pixels
Height                                   : 720 pixels
Display aspect ratio                     : 16:9
Frame rate                               : 25.000 fps
Color space                              : YUV
Chroma subsampling                       : 4:2:0
Compression mode                         : Lossy
Bits/(Pixel*Frame)                       : 0.079
Stream size                              : 1.43 GiB (93%)

Audio
ID                                       : 1
Format                                   : MPEG Audio
Format version                           : Version 1
Format profile                           : Layer 3
Mode                                     : Joint stereo
Mode extension                           : MS Stereo
Codec ID                                 : 55
Codec ID/Hint                            : MP3
Duration                                 : 1h 53mn
Bit rate mode                            : Constant
Bit rate                                 : 128 Kbps
Channel(s)                               : 2 channels
Sampling rate                            : 48.0 KHz
Compression mode                         : Lossy
Stream size                              : 104 MiB (7%)
Alignment                                : Aligned on interleaves
Interleave, duration                     : 24 ms (0.60 video frame)
Writing library                          : LAME3.98.4






http://www72.zippyshare.com/v/43982568/file.html
http://www32.zippyshare.com/v/35382938/file.html
http://www78.zippyshare.com/v/78637247/file.html
http://www38.zippyshare.com/v/60184035/file.html
http://www24.zippyshare.com/v/52445078/file.html
http://www71.zippyshare.com/v/88764395/file.html
http://www4.zippyshare.com/v/19245412/file.html
http://www33.zippyshare.com/v/76280650/file.html
[/size]
Winters Tale [HDRip 720p][Castellano][2014]
0 Puntos Score: 0/10
Visitas: 12484 Favoritos: 1
0 Comentarios Winters Tale [HDRip 720p][Castellano][2014]
Este post no tiene comentarios. Sea el primero!
Para dejar un comentario Registrate! o.. eres ya usuario? Accede!