Godzilla [CAM][Latino][2014]




Un monstruo gigante radioactivo llamado Godzilla emerge de las profundidades dispuesto a sembrar el caos y a provocar la destrucción de la raza humana. Además, en paralelo, el monstruo más famoso del mundo se enfrenta a malvadas criaturas que, animadas por la arrogancia científica de la humanidad, amenazan nuestra propia existencia. ¡Sólo nos queda intentar sobrevivir!



Título: Godzilla
Título original: Godzilla
Dirección: Gareth Edwards
País: Estados Unidos
Año: 2014
Fecha de estreno: 16/05/2014
Duración: 123 min
Género: Aventuras, Acción, Fantástico
Reparto: Ken Watanabe, Bryan Cranston, Elizabeth Olsen, Juliette Binoche, Sally Hawkins, David Strathairn, Victor Rasuk, Aaron Taylor-Johnson, Brian Markinson, Al Sapienza
Web: www.godzillamovie.com
Distribuidora: Warner Bros. Pictures
Productora: Warner Bros. Pictures, Legendary Pictures

General
Format                                   : AVI
Format/Info                              : Audio Video Interleave
File size                                : 867 MiB
Duration                                 : 1h 52mn
Overall bit rate                         : 1 080 Kbps
Writing application                      : Lavf52.84.0

Video
ID                                       : 0
Format                                   : MPEG-4 Visual
Format profile                           : [email protected]
Format settings, BVOP                    : No
Format settings, QPel                    : No
Format settings, GMC                     : No warppoints
Format settings, Matrix                  : Default (H.263)
Codec ID                                 : XVID
Codec ID/Hint                            : XviD
Duration                                 : 1h 52mn
Bit rate                                 : 939 Kbps
Width                                    : 720 pixels
Height                                   : 340 pixels
Display aspect ratio                     : 2.118
Frame rate                               : 23.976 fps
Color space                              : YUV
Chroma subsampling                       : 4:2:0
Bit depth                                : 8 bits
Scan type                                : Progressive
Compression mode                         : Lossy
Bits/(Pixel*Frame)                       : 0.160
Stream size                              : 754 MiB (87%)
Writing library                          : Lavc52.97.0

Audio
ID                                       : 1
Format                                   : MPEG Audio
Format version                           : Version 1
Format profile                           : Layer 3
Mode                                     : Joint stereo
Mode extension                           : MS Stereo
Codec ID                                 : 55
Codec ID/Hint                            : MP3
Duration                                 : 1h 52mn
Bit rate mode                            : Constant
Bit rate                                 : 128 Kbps
Channel(s)                               : 2 channels
Sampling rate                            : 48.0 KHz
Compression mode                         : Lossy
Stream size                              : 103 MiB (12%)
Alignment                                : Aligned on interleaves
Interleave, duration                     : 24 ms (0.58 video frame)
Interleave, preload duration             : 24 ms
Writing library                          : LAME3.99.5






http://www57.zippyshare.com/v/66746857/file.html
http://www40.zippyshare.com/v/49144102/file.html
http://www19.zippyshare.com/v/59057051/file.html
http://www51.zippyshare.com/v/19693391/file.html
http://www57.zippyshare.com/v/71966665/file.html
[/size]
Godzilla [CAM][Latino][2014]
41 Puntos Score: 6.8/10
Visitas: 5662 Favoritos: 2
Ver los usuarios que votaron...
6 Comentarios Godzilla [CAM][Latino][2014]
RECIEN SALIDITO DEL HORNO GRACIAS PAPA!
excelente  p
La vi ya en el teatro, vale la pena el gasto. Sin embargo gracias por el esfuerzo.
esta en halta definision el sonido o es de sine  
wena .... bajando ...... gracias......
Para dejar un comentario Registrate! o.. eres ya usuario? Accede!