Obediencia Perfecta [CAM][Latino][2014]




En el viaje de crecimiento espiritual que es necesario emprender para alcanzar la Obediencia Perfecta de Tercer Grado, el seminarista Sacramento Santos es adoptado por el fundador de la orden, el padre Ángel de la Cruz. Durante ese tiempo, se enamoran y viven la más intensa, feliz y contradictoria etapa de sus vidas. Muchos años después, Sacramento dejará la orden, se arrepentirá de ese amor y buscará ajustar cuentas con su antiguo tutor.



Titulo Original: Obediencia Perfecta
Titulo Latino: Obediencia perfecta
Actores: Luis Ernesto Franco, Alfonso Herrera, Claudette Maillé, Juan Manuel Bernal
Año: 2014
Duración: N/A.
País: Mexico
Género: Drama

General
Format                                   : AVI
Format/Info                              : Audio Video Interleave
File size                                : 753 MiB
Duration                                 : 1h 32mn
Overall bit rate                         : 1 137 Kbps
Writing application                      : Lavf52.84.0

Video
ID                                       : 0
Format                                   : MPEG-4 Visual
Format profile                           : [email protected]
Format settings, BVOP                    : No
Format settings, QPel                    : No
Format settings, GMC                     : No warppoints
Format settings, Matrix                  : Default (H.263)
Codec ID                                 : DIVX
Codec ID/Info                            : Project Mayo
Codec ID/Hint                            : DivX 4
Duration                                 : 1h 32mn
Bit rate                                 : 995 Kbps
Width                                    : 720 pixels
Height                                   : 302 pixels
Display aspect ratio                     : 2.40:1
Frame rate                               : 29.970 fps
Color space                              : YUV
Chroma subsampling                       : 4:2:0
Bit depth                                : 8 bits
Scan type                                : Progressive
Compression mode                         : Lossy
Bits/(Pixel*Frame)                       : 0.153
Stream size                              : 659 MiB (88%)
Writing library                          : Lavc52.97.0

Audio
ID                                       : 1
Format                                   : MPEG Audio
Format version                           : Version 1
Format profile                           : Layer 3
Mode                                     : Joint stereo
Mode extension                           : MS Stereo
Codec ID                                 : 55
Codec ID/Hint                            : MP3
Duration                                 : 1h 32mn
Bit rate mode                            : Constant
Bit rate                                 : 128 Kbps
Channel(s)                               : 2 channels
Sampling rate                            : 48.0 KHz
Compression mode                         : Lossy
Stream size                              : 84.7 MiB (11%)
Alignment                                : Aligned on interleaves
Interleave, duration                     : 24 ms (0.72 video frame)
Writing library                          : LAME3.98.4






http://www75.zippyshare.com/v/83431588/file.html
http://www78.zippyshare.com/v/70012728/file.html
http://www55.zippyshare.com/v/95620165/file.html
http://www7.zippyshare.com/v/20354381/file.html
[/size]
Obediencia Perfecta [CAM][Latino][2014]
0 Puntos Score: 0/10
Visitas: 1271 Favoritos: 1
0 Comentarios Obediencia Perfecta [CAM][Latino][2014]
Este post no tiene comentarios. Sea el primero!
Para dejar un comentario Registrate! o.. eres ya usuario? Accede!