Don Peyote [HDRip 720p][VOSE][2014]




Cuenta la historia de Warren Allman, quien se lanza completamente en el agujero del conejo de las teorías de la conspiración, sociedades secretas y la contra-cultura, todo para tratar de descubrir que está sucediendo realmente en el mundo y quien está jalando las cuerdas.



Título original: Don Peyote 
Año: 2014 
Duración: 98 min. 
Pais: Estados Unidos 
Director: Michael Canzoniero, Dan Fogler 
Guión: Michael Canzoniero, Dan Fogler 
Música: Ben Lovett 
Fotografía: John Inwood  
Reparto: Dan Fogler, Josh Duhamel, Jay Baruchel, Wallace Shawn, Anne Hathaway, Topher Grace, Abel Ferrara, Annabella Sciorra, Sean Brosnan, Dean Winters 
Productora: Studio13 / Redwire Pictures / Casadelic Pictures 
Género: Comedia. Drama | Drogas

General
Format                                   : MPEG-4
Format profile                           : Base Media / Version 2
Codec ID                                 : mp42
File size                                : 981 MiB
Duration                                 : 1h 39mn
Overall bit rate mode                    : Variable
Overall bit rate                         : 1 380 Kbps
Encoded date                             : UTC 2014-05-12 23:20:34
Tagged date                              : UTC 2014-05-12 23:52:19
Writing application                      : DVDFab

Video
ID                                       : 1
Format                                   : AVC
Format/Info                              : Advanced Video Codec
Format profile                           : [email protected]
Format settings, CABAC                   : Yes
Format settings, ReFrames                : 1 frame
Codec ID                                 : avc1
Codec ID/Info                            : Advanced Video Coding
Duration                                 : 1h 39mn
Bit rate mode                            : Variable
Bit rate                                 : 1 247 Kbps
Width                                    : 1 280 pixels
Height                                   : 718 pixels
Display aspect ratio                     : 16:9
Frame rate mode                          : Variable
Frame rate                               : 23.976 fps
Minimum frame rate                       : 23.974 fps
Maximum frame rate                       : 23.981 fps
Color space                              : YUV
Chroma subsampling                       : 4:2:0
Bit depth                                : 8 bits
Scan type                                : Progressive
Bits/(Pixel*Frame)                       : 0.057
Stream size                              : 887 MiB (90%)
Writing library                          : x264 core
Encoded date                             : UTC 2014-05-12 23:20:34
Tagged date                              : UTC 2014-05-12 23:52:15
Color primaries                          : BT.709-5, BT.1361, IEC 61966-2-4, SMPTE RP177
Transfer characteristics                 : BT.709-5, BT.1361
Matrix coefficients                      : BT.709-5, BT.1361, IEC 61966-2-4 709, SMPTE RP177

Audio
ID                                       : 2
Format                                   : AAC
Format/Info                              : Advanced Audio Codec
Format profile                           : LC
Codec ID                                 : 40
Duration                                 : 1h 39mn
Bit rate mode                            : Variable
Bit rate                                 : 128 Kbps
Maximum bit rate                         : 202 Kbps
Channel(s)                               : 2 channels
Channel positions                        : Front: L R
Sampling rate                            : 48.0 KHz
Compression mode                         : Lossy
Stream size                              : 91.0 MiB (9%)
Language                                 : English
Encoded date                             : UTC 2014-05-12 23:20:34
Tagged date                              : UTC 2014-05-12 23:50:48






http://www61.zippyshare.com/v/82912684/file.html
http://www74.zippyshare.com/v/9032869/file.html
http://www48.zippyshare.com/v/42948767/file.html
http://www49.zippyshare.com/v/41767362/file.html
http://www58.zippyshare.com/v/39887335/file.html
[/size]
Don Peyote [HDRip 720p][VOSE][2014]
0 Puntos Score: 0/10
Visitas: 1682 Favoritos: 1
1 Comentarios Don Peyote [HDRip 720p][VOSE][2014]
Parece interesante, gracias man  
Para dejar un comentario Registrate! o.. eres ya usuario? Accede!