Mindscape [HDRip 720p][Castellano][2013]




Un hombre especializado en analizar las mentes de las personas, llegando a entrar en ellas, recibe el encargo de estudiar a una adolescente de 16 años. La chica se llama Anna (Taissa Farmiga) y las personas que la conocen aseguran que es una psicópata en potencia. El especialista deberá determinar si están en lo cierto o si solamente es una chica con problemas de adaptación social. Pero el tratamiento es más peligroso de lo que imaginaba...



Título: Mindscape
Título original: Mindscape
Dirección: Jorge Dorado
País: Estados Unidos
Año: 2014
Fecha de estreno: 24/01/2014
Duración: 95 min
Género: Thriller
Calificación: No recomendada para menores de 12 años
Reparto: Mark Strong, Taissa Farmiga, Brian Cox
Distribuidora: Warner Bros. Pictures
Productora: Antena 3 Films, Safran Company, The, Roxbury Pictures, StudioCanal

General
Format                                   : MPEG-4
Format profile                           : Base Media / Version 2
Codec ID                                 : mp42
File size                                : 979 MiB
Duration                                 : 1h 38mn
Overall bit rate mode                    : Variable
Overall bit rate                         : 1 386 Kbps
Encoded date                             : UTC 2014-05-15 20:15:51
Tagged date                              : UTC 2014-05-15 20:35:23
Writing application                      : DVDFab

Video
ID                                       : 1
Format                                   : AVC
Format/Info                              : Advanced Video Codec
Format profile                           : [email protected]
Format settings, CABAC                   : Yes
Format settings, ReFrames                : 1 frame
Format settings, GOP                     : M=1, N=24
Codec ID                                 : avc1
Codec ID/Info                            : Advanced Video Coding
Duration                                 : 1h 38mn
Bit rate mode                            : Variable
Bit rate                                 : 1 253 Kbps
Width                                    : 1 280 pixels
Height                                   : 534 pixels
Display aspect ratio                     : 2.40:1
Frame rate mode                          : Variable
Frame rate                               : 23.976 fps
Minimum frame rate                       : 23.974 fps
Maximum frame rate                       : 23.981 fps
Color space                              : YUV
Chroma subsampling                       : 4:2:0
Bit depth                                : 8 bits
Scan type                                : Progressive
Bits/(Pixel*Frame)                       : 0.076
Stream size                              : 886 MiB (90%)
Writing library                          : x264 core
Encoded date                             : UTC 2014-05-15 20:15:51
Tagged date                              : UTC 2014-05-15 20:35:19
Color primaries                          : BT.709-5, BT.1361, IEC 61966-2-4, SMPTE RP177
Transfer characteristics                 : BT.709-5, BT.1361
Matrix coefficients                      : BT.709-5, BT.1361, IEC 61966-2-4 709, SMPTE RP177

Audio
ID                                       : 2
Format                                   : AAC
Format/Info                              : Advanced Audio Codec
Format profile                           : LC
Codec ID                                 : 40
Duration                                 : 1h 38mn
Bit rate mode                            : Variable
Bit rate                                 : 128 Kbps
Maximum bit rate                         : 199 Kbps
Channel(s)                               : 2 channels
Channel positions                        : Front: L R
Sampling rate                            : 48.0 KHz
Compression mode                         : Lossy
Stream size                              : 90.2 MiB (9%)
Language                                 : Spanish
Encoded date                             : UTC 2014-05-15 20:15:51
Tagged date                              : UTC 2014-05-15 20:34:28






http://www66.zippyshare.com/v/47430071/file.html
http://www68.zippyshare.com/v/40527846/file.html
http://www7.zippyshare.com/v/41112618/file.html
http://www45.zippyshare.com/v/51393487/file.html
http://www60.zippyshare.com/v/18191706/file.html
[/size]
Mindscape [HDRip 720p][Castellano][2013]
0 Puntos Score: 0/10
Visitas: 11195 Favoritos: 1
1 Comentarios Mindscape [HDRip 720p][Castellano][2013]
descargando se ve interesante, Gracias
Para dejar un comentario Registrate! o.. eres ya usuario? Accede!