Mindscape [HDRip 720p][VOSE][2013]




Un hombre especializado en analizar las mentes de las personas, llegando a entrar en ellas, recibe el encargo de estudiar a una adolescente de 16 años. La chica se llama Anna (Taissa Farmiga) y las personas que la conocen aseguran que es una psicópata en potencia. El especialista deberá determinar si están en lo cierto o si solamente es una chica con problemas de adaptación social. Pero el tratamiento es más peligroso de lo que imaginaba...



Título: Mindscape
Título original: Mindscape
Dirección: Jorge Dorado
País: Estados Unidos
Año: 2014
Fecha de estreno: 24/01/2014
Duración: 95 min
Género: Thriller
Calificación: No recomendada para menores de 12 años
Reparto: Mark Strong, Taissa Farmiga, Brian Cox
Distribuidora: Warner Bros. Pictures
Productora: Antena 3 Films, Safran Company, The, Roxbury Pictures, StudioCanal

General
Format                                   : MPEG-4
Format profile                           : Base Media / Version 2
Codec ID                                 : mp42
File size                                : 981 MiB
Duration                                 : 1h 38mn
Overall bit rate mode                    : Variable
Overall bit rate                         : 1 388 Kbps
Album                                    : Mindscape.2014
Encoded date                             : UTC 2014-05-09 10:15:38
Tagged date                              : UTC 2014-05-09 10:35:37
Writing application                      : DVDFab

Video
ID                                       : 1
Format                                   : AVC
Format/Info                              : Advanced Video Codec
Format profile                           : [email protected]
Format settings, CABAC                   : Yes
Format settings, ReFrames                : 1 frame
Format settings, GOP                     : M=1, N=24
Codec ID                                 : avc1
Codec ID/Info                            : Advanced Video Coding
Duration                                 : 1h 38mn
Bit rate mode                            : Variable
Bit rate                                 : 1 256 Kbps
Width                                    : 1 280 pixels
Height                                   : 664 pixels
Display aspect ratio                     : 1.928
Frame rate mode                          : Variable
Frame rate                               : 23.976 fps
Minimum frame rate                       : 23.974 fps
Maximum frame rate                       : 23.981 fps
Color space                              : YUV
Chroma subsampling                       : 4:2:0
Bit depth                                : 8 bits
Scan type                                : Progressive
Bits/(Pixel*Frame)                       : 0.062
Stream size                              : 887 MiB (90%)
Writing library                          : x264 core
Encoded date                             : UTC 2014-05-09 10:15:38
Tagged date                              : UTC 2014-05-09 10:35:33
Color primaries                          : BT.709-5, BT.1361, IEC 61966-2-4, SMPTE RP177
Transfer characteristics                 : BT.709-5, BT.1361
Matrix coefficients                      : BT.709-5, BT.1361, IEC 61966-2-4 709, SMPTE RP177

Audio
ID                                       : 2
Format                                   : AAC
Format/Info                              : Advanced Audio Codec
Format profile                           : LC
Codec ID                                 : 40
Duration                                 : 1h 38mn
Bit rate mode                            : Variable
Bit rate                                 : 128 Kbps
Maximum bit rate                         : 214 Kbps
Channel(s)                               : 2 channels
Channel positions                        : Front: L R
Sampling rate                            : 48.0 KHz
Compression mode                         : Lossy
Stream size                              : 90.4 MiB (9%)
Language                                 : English
Encoded date                             : UTC 2014-05-09 10:15:38
Tagged date                              : UTC 2014-05-09 10:35:20

Text
ID                                       : 3
Format                                   : Apple text
Codec ID                                 : text
Duration                                 : 1h 38mn
Bit rate mode                            : Variable
Bit rate                                 : 0 bps
Stream size                              : 279 Bytes (0%)
Encoded date                             : UTC 2014-05-09 10:15:38
Tagged date                              : UTC 2014-05-09 10:35:37






http://www11.zippyshare.com/v/75152698/file.html
http://www42.zippyshare.com/v/5370812/file.html
http://www8.zippyshare.com/v/52338397/file.html
http://www22.zippyshare.com/v/787360/file.html
http://www46.zippyshare.com/v/43980409/file.html
[/size]
Mindscape [HDRip 720p][VOSE][2013]
15 Puntos Score: 7.5/10
Visitas: 2327 Favoritos: 0
Ver los usuarios que votaron...
3 Comentarios Mindscape [HDRip 720p][VOSE][2013]
Se lee interesante, he mirado el trailer y bueno me he decidido a bajarla para verla, gracias  
Buena pelicula +10
Para dejar un comentario Registrate! o.. eres ya usuario? Accede!