Gunner120
"No subo más nada,salvo por supuesto,puntuar :)"

KOTOKO - ?????





Video
ID                                       : 1
Format                                   : AVC
Format/Info                              : Advanced Video Codec
Format profile                           : [email protected]
Format settings, CABAC                   : Yes
Format settings, ReFrames                : 5 frames
Codec ID                                 : avc1
Codec ID/Info                            : Advanced Video Coding
Duration                                 : 1mn 45s
Bit rate                                 : 1 372 Kbps
Maximum bit rate                         : 3 591 Kbps
Width                                    : 640 pixels
Height                                   : 480 pixels
Display aspect ratio                     : 4:3
Frame rate mode                          : Constant
Frame rate                               : 29.970 fps
Color space                              : YUV
Chroma subsampling                       : 4:2:0
Bit depth                                : 8 bits
Scan type                                : Progressive
Bits/(Pixel*Frame)                       : 0.149
Stream size                              : 17.1 MiB (91%)
Writing library                          : x264 core 94 r1583

Audio
ID                                       : 2
Format                                   : AAC
Format/Info                              : Advanced Audio Codec
Format profile                           : LC
Codec ID                                 : 40
Duration                                 : 1mn 45s
Bit rate mode                            : Variable
Bit rate                                 : 125 Kbps
Maximum bit rate                         : 133 Kbps
Channel count                            : 2 channels
Channel positions                        : Front: L R
Sampling rate                            : 44.1 KHz
Compression mode                         : Lossy
Stream size                              : 1.57 MiB (8%)




Navegando en las profundidades de la Internet me encontré este vídeo particular muy bueno para mi gusto ya que me gustan este tipo de cosas y me vino a la idea compartirlo.

Es un Vídeo Musical con el tema ????? de KOTOKO de fondo tipo karaoke
VIDEO:


MP3 320 kbps :
KOTOKO - ?????
35 Puntos Score: 8.8/10
Visitas: 1172 Favoritos: 0
Ver los usuarios que votaron...
9 Comentarios KOTOKO - ?????
que mierda es? de que va? al menos una sinopsis no?
Gracias por compartir
@ROGGERT jajaja casi muero por tu comentario   es para fan?
Cita ROGGERT: Mostrar
@Gunner120
opino lo mismo que @ROGGERT
@Nero001 ok si insisten tanto pondr?
@Gunner120 en otras palabras un video musical
Dilo con orgullo, no sientas pena de ser un Lolicon!!!   Esta bacan el video.. la chaparrita tiene buenos temas..
Para dejar un comentario Registrate! o.. eres ya usuario? Accede!