Oops.. Este post tiene los enlaces eliminados!

Identi revisa las denuncias de los usuarios en busca de enlaces eliminados que no dejan descargar los archivos, este mensaje te informa que este post que estas viendo tiene los enlaces eliminados.

Usa el Buscador

Por favor, te recomendamos que uses el buscador para encontrar más alternativas.

Legend of the Guardians [2010] [DVDRip] Español La

  • Categoría: Reciclaje
  • Publicado hace más de 3 años

 
 
 

 
 
 

 
 

 
 

 
 

 
 

 
 
 

 
 
 Soren (con la voz original de Jim Sturgess) es un pequeño búho que un día es raptado de su granero por los búhos de St. Aggie, un orfanato especializado en convertir a las aves más jóvenes en valientes soldados. Una vez allí, Soren consigue escapar junto a otros amigos a la isla de Ga'Hoole. Pero, como es lógico, las autoridades de St. Aggie no les dejarán vivir tranquilos. La aventura acaba de comenzar.

 

 
 Título: Ga'Hoole: La leyenda de los guardianes
 Título original: Legend of the Guardians
 País: Estados Unidos, Australia
 Año: 2010
 Duración: 90 min
 Género: Animación, Aventuras, Fantástico
 Reparto: Emilie de Ravin, Helen Mirren, Hugo Weaving, Geoffrey Rush, Abbie Cornish, Jim Sturgess, Ryan Kwanten, Sam Neill,David Wenham, Miriam Margolyes
 Distribuidora: Warner Bros. Pictures
 Productora: Warner Bros. Pictures, Village Roadshow Pictures, Animal Logic

 

 
 General
Complete name                            : Legend of the Guardians
Format                                   : AVI
Format/Info                              : Audio Video Interleave
File size                                : 1.37 GiB
Duration                                 : 1h 36mn
Overall bit rate                         : 2 022 Kbps
Writing application                      : VirtualDubMod 1.5.4.1 (build 2178/release)
Writing library                          : VirtualDubMod build 2178/release

Video
ID                                       : 0
Format                                   : MPEG-4 Visual
Format profile                           : Advanced [email protected]
Format settings, BVOP                    : 1
Format settings, QPel                    : No
Format settings, GMC                     : No warppoints
Format settings, Matrix                  : Custom
Codec ID                                 : XVID
Codec ID/Hint                            : XviD
Duration                                 : 1h 36mn
Bit rate                                 : 1 632 Kbps
Width                                    : 704 pixels
Height                                   : 304 pixels
Display aspect ratio                     : 2.35:1
Frame rate                               : 23.976 fps
Color space                              : YUV
Chroma subsampling                       : 4:2:0
Bit depth                                : 8 bits
Scan type                                : Progressive
Compression mode                         : Lossy
Bits/(Pixel*Frame)                       : 0.318
Stream size                              : 1.10 GiB (81%)
Writing library                          : XviD 1.2.1 (UTC 2008-12-04)

Audio
ID                                       : 1
Format                                   : AC-3
Format/Info                              : Audio Coding 3
Mode extension                           : CM (complete main)
Format settings, Endianness              : Big
Codec ID                                 : 2000
Duration                                 : 1h 36mn
Bit rate mode                            : Constant
Bit rate                                 : 384 Kbps
Channel count                            : 6 channels
Channel positions                        : Front: L C R, Side: L R, LFE
Sampling rate                            : 48.0 KHz
Bit depth                                : 16 bits
Compression mode                         : Lossy
Stream size                              : 266 MiB (19%)
Alignment                                : Split accross interleaves
Interleave, duration                     : 96 ms (2.30 video frames)
Interleave, preload duration             : 96 ms
Language                                 : Espanol

 

 

 

 


 pass: lalokera
peliculas - programas
10 Puntos Score: 10/10
Visitas: 1676 Favoritos: 0
Ver los usuarios que votaron...
Más del Autor...
No se encontraron más posts
1 Comentarios Legend of the Guardians [2010] [DVDRip] Español La
buen aporte man van puntos por ser subida propia
Este post esta cerrado y no se permiten comentarios.
Para dejar un comentario Registrate! o.. eres ya usuario? Accede!
Facebook Identi