The Mummy Resurrected [HDRip 720p][VOSE][2014]




Un equipo de arqueólogos descubrió una antigua momia, desatando una maldición mortal desde su tumba eterna.



Título: The Mummy Resurrected
Género: Terror | Monstruos
Duración: 80 min.
Director: Patrick McManus
Reparto: Lauren Bronleewe, Elizabeth Friedman, Bailey Gaddis, Mark Naji, Jessie Paddock, Iyad Hajjaj, Stuart Rigby, Sarah Schreiber, Alena Savostikova, Fouad Hajji
Productora: Halcyon International Pictures
País: USA
Año: 2014

General
Format                                   : AVI
Format/Info                              : Audio Video Interleave
Format profile                           : OpenDML
File size                                : 1.41 GiB
Duration                                 : 1h 20mn
Overall bit rate                         : 2 518 Kbps
Writing application                      : Lavf52.84.0

Video
ID                                       : 0
Format                                   : MPEG-4 Visual
Codec ID                                 : FMP4
Duration                                 : 1h 20mn
Bit rate                                 : 2 374 Kbps
Width                                    : 1 280 pixels
Height                                   : 720 pixels
Display aspect ratio                     : 16:9
Frame rate                               : 29.970 fps
Color space                              : YUV
Chroma subsampling                       : 4:2:0
Compression mode                         : Lossy
Bits/(Pixel*Frame)                       : 0.086
Stream size                              : 1.33 GiB (94%)

Audio
ID                                       : 1
Format                                   : MPEG Audio
Format version                           : Version 1
Format profile                           : Layer 3
Mode                                     : Joint stereo
Mode extension                           : MS Stereo
Codec ID                                 : 55
Codec ID/Hint                            : MP3
Duration                                 : 1h 20mn
Bit rate mode                            : Constant
Bit rate                                 : 128 Kbps
Channel(s)                               : 2 channels
Sampling rate                            : 48.0 KHz
Compression mode                         : Lossy
Stream size                              : 73.6 MiB (5%)
Alignment                                : Aligned on interleaves
Interleave, duration                     : 24 ms (0.72 video frame)
Writing library                          : LAME3.98.4






http://www66.zippyshare.com/v/88250369/file.html
http://www73.zippyshare.com/v/88213821/file.html
http://www51.zippyshare.com/v/13408666/file.html
http://www45.zippyshare.com/v/94414066/file.html
http://www25.zippyshare.com/v/87169616/file.html
http://www37.zippyshare.com/v/71780402/file.html
http://www65.zippyshare.com/v/53525811/file.html
http://www42.zippyshare.com/v/42053869/file.html
[/size]
The Mummy Resurrected [HDRip 720p][VOSE][2014]
10 Puntos Score: 10/10
Visitas: 4917 Favoritos: 3
Ver los usuarios que votaron...
6 Comentarios The Mummy Resurrected [HDRip 720p][VOSE][2014]
sin subtitulos supongo por el (VOSE)
Cita Mansia94: Mostrar
amigo, creo que es "Voz Origina Subtitulo Espa?
Cita Azrael999: Mostrar
ERROR DE DESCARGA EN VARIOS LINKS ...REVISA X FAVOR.CUANDO LO DESCARGAS DA ERROR
gracias men por el aporte los link funcionan correctamente saludos ahora a disfrutar de la peli
Para dejar un comentario Registrate! o.. eres ya usuario? Accede!