The Amazing Spiderman 2 [DVDSCR][Castellano][2014]




Tobey Marshall (Aaron Paul) es un humilde mecánico que intenta sacar adelante su taller de reparaciones de la mejor manera posible. Como el dinero no le llega, participa en carreras ilegales al volante de coches clásicos cuyos motores han sido trucados. Cuando está a punto de saldar sus deudas, el ex piloto de NASCAR Dino Brewster (Dominic Cooper) le delata. Tobey pasa dos años en la cárcel. Cuando sale, sólo piensa en vengarse de Dino. Pero para ello tendrá que recorrer los Estados Unidos de costa a costa, en una contrarreloj muy peligrosa porque la policía irá siempre pisándole los talones.



Título: The Amazing Spider-Man 2: El poder de Electro
Título original: The Amazing Spider-Man 2
Dirección: Marc Webb
País: Estados Unidos
Año: 2014
Fecha de estreno: 16/04/2014
Duración: 142 min
Género: Aventuras, Acción, Fantástico
Calificación: No recomendada para menores de 7 años
Reparto: Emma Stone, Andrew Garfield, Dane DeHaan, Jamie Foxx, Martin Sheen, Paul Giamatti, Felicity Jones, Colm Feore, Sally Field, Chris Cooper
Web: The Amazing Spider-Man 2? | Official Movie Site | Sony Pictures International
Distribuidora: Sony Pictures
Productora: Marvel Studios

General
Format                                   : AVI
Format/Info                              : Audio Video Interleave
File size                                : 1.50 GiB
Duration                                 : 2h 16mn
Overall bit rate                         : 1 565 Kbps
Movie name                               : THE AMAZING SPIDERMAN 2 2014.Title1.DVDRip
Writing application                      : VirtualDubMod 1.5.10.2 (build 2540/release)
Writing library                          : VirtualDubMod build 2540/release
Original source form/Name                : THE AMAZING SPIDERMAN 2 2014

Video
ID                                       : 0
Format                                   : MPEG-4 Visual
Format profile                           : Advanced [email protected]
Format settings, BVOP                    : 2
Format settings, QPel                    : No
Format settings, GMC                     : No warppoints
Format settings, Matrix                  : Default (H.263)
Muxing mode                              : Packed bitstream
Codec ID                                 : XVID
Codec ID/Hint                            : XviD
Duration                                 : 2h 16mn
Bit rate                                 : 1 363 Kbps
Width                                    : 720 pixels
Height                                   : 298 pixels
Display aspect ratio                     : 2.40:1
Frame rate                               : 23.976 fps
Color space                              : YUV
Chroma subsampling                       : 4:2:0
Bit depth                                : 8 bits
Scan type                                : Progressive
Compression mode                         : Lossy
Bits/(Pixel*Frame)                       : 0.265
Stream size                              : 1.30 GiB (87%)
Writing library                          : XviD 64

Audio
ID                                       : 1
Format                                   : MPEG Audio
Format version                           : Version 1
Format profile                           : Layer 3
Codec ID                                 : 55
Codec ID/Hint                            : MP3
Duration                                 : 2h 16mn
Bit rate mode                            : Constant
Bit rate                                 : 192 Kbps
Channel(s)                               : 2 channels
Sampling rate                            : 44.1 KHz
Compression mode                         : Lossy
Stream size                              : 188 MiB (12%)
Alignment                                : Split accross interleaves
Interleave, duration                     : 42 ms (1.00 video frame)
Interleave, preload duration             : 500 ms






http://www62.zippyshare.com/v/55456393/file.html
http://www36.zippyshare.com/v/47530656/file.html
http://www13.zippyshare.com/v/48359653/file.html
http://www78.zippyshare.com/v/85198200/file.html
http://www19.zippyshare.com/v/19393109/file.html
http://www57.zippyshare.com/v/34487488/file.html
http://www10.zippyshare.com/v/97289251/file.html
http://www22.zippyshare.com/v/51750829/file.html
[/size]
The Amazing Spiderman 2 [DVDSCR][Castellano][2014]
0 Puntos Score: 0/10
Visitas: 32227 Favoritos: 1
8 Comentarios The Amazing Spiderman 2 [DVDSCR][Castellano][2014]
CHE ES DVD RIP? SE VE BIEN ?
o son esas cagadas filmadas con camara en el cine, que todos quieren ver?
DVDSCR o AVI? gracias fiera! ah y tambi?
Cita mustiff: Mostrar
son cam de buena calidad, ya que el dvdrip aun se demora unas semana
Cita jotamath: Mostrar
gracias locura, no queda otra que esperar!!!
ya para que responder si se respondieron ustedes mismos GG... salu2
se ve para el ojet... no la bajen
Gracias por el aporte  
Para dejar un comentario Registrate! o.. eres ya usuario? Accede!