Malditos Vecinos [TSHQ][VOSE][2014]




Mac (Seth Rogen) lleva una vida tranquila en compañía de su mujer y sus hijos hasta que, de repente, entra en contacto con el líder de una hermandad juvenil (Zac Efron). A partir de entonces, los dos hombres lucharán por imponer sus ideas y formas de vida. El líder de la hermandad no tendrá otra cosa que hacer que importunar a Mac de todas las maneras que se le ocurren. Así, tenemos una película que intenta reflejar la dificultad de conjugar la comodidad de los treinta y muchos con la rebeldía de los veintipocos. ¿Cuál de los dos se llevará el gato al agua?



Título: Malditos vecinos
Título original: Neighbors
Dirección: Nicholas Stoller
País: Estados Unidos
Año: 2014
Fecha de estreno: 09/05/2014
Duración: 96 min
Género: Comedia
Reparto: Seth Rogen, Rose Byrne, Zac Efron, Dave Franco, Christopher Mintz-Plasse, Lisa Kudrow, Jake M. Johnson, Carla Gallo, Chasty Ballesteros, Craig Roberts
Web: :: BAD NEIGHBOURS ::
Distribuidora: Universal Pictures
Productora: Universal Pictures, Point Grey Pictures

General
Format                                   : AVI
Format/Info                              : Audio Video Interleave
Format profile                           : OpenDML
File size                                : 1.13 GiB
Duration                                 : 1h 30mn
Overall bit rate                         : 1 784 Kbps
Writing application                      : Lavf52.84.0

Video
ID                                       : 0
Format                                   : MPEG-4 Visual
Codec ID                                 : FMP4
Duration                                 : 1h 30mn
Bit rate                                 : 1 639 Kbps
Width                                    : 864 pixels
Height                                   : 432 pixels
Display aspect ratio                     : 2.000
Frame rate                               : 29.970 fps
Color space                              : YUV
Chroma subsampling                       : 4:2:0
Compression mode                         : Lossy
Bits/(Pixel*Frame)                       : 0.147
Stream size                              : 1.04 GiB (92%)

Audio
ID                                       : 1
Format                                   : MPEG Audio
Format version                           : Version 1
Format profile                           : Layer 3
Mode                                     : Joint stereo
Codec ID                                 : 55
Codec ID/Hint                            : MP3
Duration                                 : 1h 30mn
Bit rate mode                            : Constant
Bit rate                                 : 128 Kbps
Channel(s)                               : 2 channels
Sampling rate                            : 48.0 KHz
Compression mode                         : Lossy
Stream size                              : 83.2 MiB (7%)
Alignment                                : Aligned on interleaves
Interleave, duration                     : 24 ms (0.72 video frame)
Writing library                          : LAME3.98.4






http://www52.zippyshare.com/v/61894684/file.html
http://www29.zippyshare.com/v/67109132/file.html
http://www24.zippyshare.com/v/62620953/file.html
http://www18.zippyshare.com/v/36942270/file.html
http://www75.zippyshare.com/v/5695090/file.html
http://www76.zippyshare.com/v/68655531/file.html
[/size]
Malditos Vecinos [TSHQ][VOSE][2014]
0 Puntos Score: 0/10
Visitas: 3237 Favoritos: 1
1 Comentarios Malditos Vecinos [TSHQ][VOSE][2014]
Hola, la peli tiene subtitulo?
Para dejar un comentario Registrate! o.. eres ya usuario? Accede!