Mandela [HDRip 720p][Latino][2013]




Biopic de Nelson Mandela (Idris Elba) que abarca desde su infancia en una aislada comunidad rural de Sudáfrica hasta su llegada al poder de la nación, pasando por los largos años de cautiverio que padeció en prisión. Fallecido a finales de 2013, Mandela siempre será recordado por haber derrotado la política del apartheid y por haber conseguido que negros y blancos pudieran convivir en paz defendiendo, orgullosos, los colores de una misma bandera. Pero su gobierno, como todos, también tuvo luces y sombras...



Título: Mandela: Del mito al hombre
Título original: Mandela: Long Walk to Freedom
Dirección: Justin Chadwick
País: El Reino Unido, Sudáfrica
Año: 2013
Fecha de estreno: 17/01/2014
Duración: 139 min
Género: Drama, Histórico, Biográfico
Reparto: Idris Elba, Naomie Harris, Robert Hobbs, Tony Kgoroge, Jamie Bartlett, Terry Pheto, Fana Mokoena, Simo Mogwaza
Distribuidora: Warner Bros. Pictures
Productora: Pathé, Distant Horizons, Videovision Entertainment, Origin Pictures

General
Format                                   : Matroska
Format version                           : Version 4 / Version 2
File size                                : 1 011 MiB
Duration                                 : 2h 21mn
Overall bit rate                         : 1 001 Kbps
Encoded date                             : UTC 2014-02-23 18:59:44
Writing application                      : mkvmerge v6.7.0 ('Back to the Ground') 64bit built on Jan  8 2014 15:10:52
Writing library                          : libebml v1.3.0 + libmatroska v1.4.1

Video
ID                                       : 1
Format                                   : AVC
Format/Info                              : Advanced Video Codec
Format profile                           : [email protected]
Format settings, CABAC                   : Yes
Format settings, ReFrames                : 4 frames
Codec ID                                 : V_MPEG4/ISO/AVC
Duration                                 : 2h 21mn
Bit rate                                 : 871 Kbps
Width                                    : 1 280 pixels
Height                                   : 544 pixels
Display aspect ratio                     : 2.35:1
Frame rate                               : 23.976 fps
Color space                              : YUV
Chroma subsampling                       : 4:2:0
Bit depth                                : 8 bits
Scan type                                : Progressive
Bits/(Pixel*Frame)                       : 0.052
Stream size                              : 862 MiB (85%)
Writing library                          : x264 core 132 r2 76a5c3a
Encoding settings                        : cabac=1 / ref=4 / deblock=1:-1:-1 / analyse=0x3:0x133 / me=umh / subme=9 / psy=1 / psy_rd=1.00:0.15 / mixed_ref=1 / me_range=24 / chroma_me=1 / trellis=2 / 8x8dct=1 / cqm=0 / deadzone=21,11 / fast_pskip=0 / chroma_qp_offset=-3 / threads=36 / lookahead_threads=3 / sliced_threads=0 / nr=0 / decimate=1 / interlaced=0 / bluray_compat=0 / constrained_intra=0 / bframes=3 / b_pyramid=2 / b_adapt=2 / b_bias=0 / direct=3 / weightb=1 / open_gop=0 / weightp=2 / keyint=250 / keyint_min=23 / scenecut=40 / intra_refresh=0 / rc_lookahead=60 / rc=2pass / mbtree=1 / bitrate=871 / ratetol=1.0 / qcomp=0.60 / qpmin=0 / qpmax=69 / qpstep=4 / cplxblur=20.0 / qblur=0.5 / vbv_maxrate=31250 / vbv_bufsize=31250 / nal_hrd=none / ip_ratio=1.40 / aq=1:1.00
Default                                  : Yes
Forced                                   : No
Color primaries                          : BT.709-5, BT.1361, IEC 61966-2-4, SMPTE RP177
Matrix coefficients                      : BT.709-5, BT.1361, IEC 61966-2-4 709, SMPTE RP177

Audio
ID                                       : 2
Format                                   : MPEG Audio
Format version                           : Version 1
Format profile                           : Layer 3
Mode                                     : Joint stereo
Mode extension                           : MS Stereo
Codec ID                                 : A_MPEG/L3
Codec ID/Hint                            : MP3
Duration                                 : 2h 21mn
Bit rate mode                            : Constant
Bit rate                                 : 128 Kbps
Channel(s)                               : 2 channels
Sampling rate                            : 44.1 KHz
Compression mode                         : Lossy
Stream size                              : 129 MiB (13%)
Writing library                          : LAME3.98.2
Default                                  : Yes
Forced                                   : No






http://www38.zippyshare.com/v/9541497/file.html
http://www34.zippyshare.com/v/997889/file.html
http://www10.zippyshare.com/v/9424197/file.html
http://www9.zippyshare.com/v/32347104/file.html
http://www55.zippyshare.com/v/2949533/file.html
http://www75.zippyshare.com/v/11695189/file.html
Mandela [HDRip 720p][Latino][2013]
0 Puntos Score: 0/10
Visitas: 1625 Favoritos: 2
0 Comentarios Mandela [HDRip 720p][Latino][2013]
Este post no tiene comentarios. Sea el primero!
Para dejar un comentario Registrate! o.. eres ya usuario? Accede!