Mandela [HDRip][VOSE][2013]




Biopic de Nelson Mandela (Idris Elba) que abarca desde su infancia en una aislada comunidad rural de Sudáfrica hasta su llegada al poder de la nación, pasando por los largos años de cautiverio que padeció en prisión. Fallecido a finales de 2013, Mandela siempre será recordado por haber derrotado la política del apartheid y por haber conseguido que negros y blancos pudieran convivir en paz defendiendo, orgullosos, los colores de una misma bandera. Pero su gobierno, como todos, también tuvo luces y sombras...



Título: Mandela: Del mito al hombre
Título original: Mandela: Long Walk to Freedom
Dirección: Justin Chadwick
País: El Reino Unido, Sudáfrica
Año: 2013
Fecha de estreno: 17/01/2014
Duración: 139 min
Género: Drama, Histórico, Biográfico
Reparto: Idris Elba, Naomie Harris, Robert Hobbs, Tony Kgoroge, Jamie Bartlett, Terry Pheto, Fana Mokoena, Simo Mogwaza
Distribuidora: Warner Bros. Pictures
Productora: Pathé, Distant Horizons, Videovision Entertainment, Origin Pictures

General
Format                                   : AVI
Format/Info                              : Audio Video Interleave
File size                                : 1.29 GiB
Duration                                 : 2h 17mn
Overall bit rate                         : 1 347 Kbps
Writing application                      : VirtualDubMod 1.5.10.2 (build 2542/release)
Writing library                          : VirtualDubMod build 2542/release

Video
ID                                       : 0
Format                                   : MPEG-4 Visual
Format profile                           : Advanced [email protected]
Format settings, BVOP                    : 2
Format settings, QPel                    : No
Format settings, GMC                     : No warppoints
Format settings, Matrix                  : Default (H.263)
Codec ID                                 : XVID
Codec ID/Hint                            : XviD
Duration                                 : 2h 17mn
Bit rate                                 : 1 210 Kbps
Width                                    : 736 pixels
Height                                   : 312 pixels
Display aspect ratio                     : 2.35:1
Original display aspect ratio            : 2.35:1
Frame rate                               : 23.976 fps
Color space                              : YUV
Chroma subsampling                       : 4:2:0
Bit depth                                : 8 bits
Scan type                                : Progressive
Compression mode                         : Lossy
Bits/(Pixel*Frame)                       : 0.220
Stream size                              : 1.16 GiB (90%)
Writing library                          : XviD 1.2.1 (UTC 2008-12-04)

Audio
ID                                       : 1
Format                                   : MPEG Audio
Format version                           : Version 1
Format profile                           : Layer 3
Mode                                     : Joint stereo
Codec ID                                 : 55
Codec ID/Hint                            : MP3
Duration                                 : 2h 17mn
Bit rate mode                            : Constant
Bit rate                                 : 128 Kbps
Channel(s)                               : 2 channels
Sampling rate                            : 44.1 KHz
Compression mode                         : Lossy
Stream size                              : 126 MiB (10%)
Alignment                                : Split accross interleaves
Interleave, duration                     : 42 ms (1.00 video frame)
Interleave, preload duration             : 500 ms






http://www34.zippyshare.com/v/30105676/file.html
http://www32.zippyshare.com/v/40209500/file.html
http://www61.zippyshare.com/v/67232639/file.html
http://www64.zippyshare.com/v/97014034/file.html
http://www47.zippyshare.com/v/33347165/file.html
http://www62.zippyshare.com/v/80988611/file.html
http://www28.zippyshare.com/v/69915066/file.html
[/size]
Mandela [HDRip][VOSE][2013]
5 Puntos Score: 5/10
Visitas: 1808 Favoritos: 0
Ver los usuarios que votaron...
0 Comentarios Mandela [HDRip][VOSE][2013]
Este post no tiene comentarios. Sea el primero!
Para dejar un comentario Registrate! o.. eres ya usuario? Accede!