Make Your Move [HDRip 720p][VOSE][2013]




Un par de bailarines de Nueva York desventurados se encuentran en el centro de una amarga rivalidad entre los clubes de baile underground.



Título original: Make Your Move
Genero : Romance, Musicales
Directores : Duane Adler
Escritores : Duane Adler
Reparto : Derek HoughBoAWill Yun LeeWesley JonathanIzabella MikoJefferson BrownMiki IshikawaRick GonzalezMichael MandoDan LauriaMary AshtonRuskoTiffany DanielsAllison HolkerSatori Xai Lorenzo

General
Format                                   : MPEG-4
Format profile                           : Base Media / Version 2
Codec ID                                 : mp42
File size                                : 983 MiB
Duration                                 : 1h 49mn
Overall bit rate mode                    : Variable
Overall bit rate                         : 1 251 Kbps
Encoded date                             : UTC 2014-05-13 17:28:03
Tagged date                              : UTC 2014-05-13 18:01:46
Writing application                      : DVDFab

Video
ID                                       : 1
Format                                   : AVC
Format/Info                              : Advanced Video Codec
Format profile                           : [email protected]
Format settings, CABAC                   : Yes
Format settings, ReFrames                : 1 frame
Format settings, GOP                     : M=1, N=24
Codec ID                                 : avc1
Codec ID/Info                            : Advanced Video Coding
Duration                                 : 1h 49mn
Bit rate mode                            : Variable
Bit rate                                 : 1 120 Kbps
Width                                    : 1 280 pixels
Height                                   : 694 pixels
Display aspect ratio                     : 1.85:1
Frame rate mode                          : Constant
Frame rate                               : 24.000 fps
Color space                              : YUV
Chroma subsampling                       : 4:2:0
Bit depth                                : 8 bits
Scan type                                : Progressive
Bits/(Pixel*Frame)                       : 0.053
Stream size                              : 880 MiB (90%)
Writing library                          : x264 core
Encoded date                             : UTC 2014-05-13 17:28:03
Tagged date                              : UTC 2014-05-13 18:01:42
Color primaries                          : BT.709-5, BT.1361, IEC 61966-2-4, SMPTE RP177
Transfer characteristics                 : BT.709-5, BT.1361
Matrix coefficients                      : BT.709-5, BT.1361, IEC 61966-2-4 709, SMPTE RP177

Audio
ID                                       : 2
Format                                   : AAC
Format/Info                              : Advanced Audio Codec
Format profile                           : LC
Codec ID                                 : 40
Duration                                 : 1h 49mn
Bit rate mode                            : Variable
Bit rate                                 : 128 Kbps
Maximum bit rate                         : 191 Kbps
Channel(s)                               : 2 channels
Channel positions                        : Front: L R
Sampling rate                            : 48.0 KHz
Compression mode                         : Lossy
Stream size                              : 100 MiB (10%)
Language                                 : English
Encoded date                             : UTC 2014-05-13 17:28:03
Tagged date                              : UTC 2014-05-13 18:00:05






http://www38.zippyshare.com/v/14188395/file.html
http://www56.zippyshare.com/v/85125412/file.html
http://www21.zippyshare.com/v/6126864/file.html
http://www53.zippyshare.com/v/9236161/file.html
http://www48.zippyshare.com/v/1535671/file.html
[/size]
Make Your Move [HDRip 720p][VOSE][2013]
0 Puntos Score: 0/10
Visitas: 1351 Favoritos: 0
0 Comentarios Make Your Move [HDRip 720p][VOSE][2013]
Este post no tiene comentarios. Sea el primero!
Para dejar un comentario Registrate! o.. eres ya usuario? Accede!