Endless Love [HDRip 720p][VOSE][2014]




Drama romántico que relata la historia de una pareja de adolescentes. David un chico de tan solo 17 años y Jade de 15 ambos recién graduados, se aman profunda pero no cuentan con la aprobación de sus padres ya que Jade pertenece a un estrato social bastante alto lo contrario a David sin embargo un día el padre de Jade los descubre a ambos haciendo el amor y es allí donde el drama de este remake toma un giro sorprendente impidiendo esa relación.



Título original: Endless Love
Otros Títulos: Amor Eterno
Título en España: Más allá del amor
Año: 2014
Duración: 103 Minutos
País: Estados Unidos
Director: Shana Feste
Guión: Shana Feste, Joshua Safran
Música: Christophe Beck
Fotografía: Andrew Dunn
Género: Romance. Drama
Temática: Drama romántico. Remake

General
Format                                   : MPEG-4
Format profile                           : Base Media / Version 2
Codec ID                                 : mp42
File size                                : 981 MiB
Duration                                 : 1h 44mn
Overall bit rate mode                    : Variable
Overall bit rate                         : 1 311 Kbps
Encoded date                             : UTC 2014-05-13 15:50:07
Tagged date                              : UTC 2014-05-13 16:14:47
Writing application                      : DVDFab

Video
ID                                       : 1
Format                                   : AVC
Format/Info                              : Advanced Video Codec
Format profile                           : [email protected]
Format settings, CABAC                   : Yes
Format settings, ReFrames                : 1 frame
Codec ID                                 : avc1
Codec ID/Info                            : Advanced Video Coding
Duration                                 : 1h 44mn
Bit rate mode                            : Variable
Bit rate                                 : 1 179 Kbps
Width                                    : 1 280 pixels
Height                                   : 542 pixels
Display aspect ratio                     : 2.35:1
Frame rate mode                          : Variable
Frame rate                               : 23.976 fps
Minimum frame rate                       : 23.974 fps
Maximum frame rate                       : 23.981 fps
Color space                              : YUV
Chroma subsampling                       : 4:2:0
Bit depth                                : 8 bits
Scan type                                : Progressive
Bits/(Pixel*Frame)                       : 0.071
Stream size                              : 881 MiB (90%)
Writing library                          : x264 core
Encoded date                             : UTC 2014-05-13 15:50:07
Tagged date                              : UTC 2014-05-13 16:14:43
Color primaries                          : BT.709-5, BT.1361, IEC 61966-2-4, SMPTE RP177
Transfer characteristics                 : BT.709-5, BT.1361
Matrix coefficients                      : BT.709-5, BT.1361, IEC 61966-2-4 709, SMPTE RP177

Audio
ID                                       : 2
Format                                   : AAC
Format/Info                              : Advanced Audio Codec
Format profile                           : LC
Codec ID                                 : 40
Duration                                 : 1h 44mn
Bit rate mode                            : Variable
Bit rate                                 : 128 Kbps
Maximum bit rate                         : 190 Kbps
Channel(s)                               : 2 channels
Channel positions                        : Front: L R
Sampling rate                            : 48.0 KHz
Compression mode                         : Lossy
Stream size                              : 95.7 MiB (10%)
Language                                 : English
Encoded date                             : UTC 2014-05-13 15:50:07
Tagged date                              : UTC 2014-05-13 16:13:37






http://www62.zippyshare.com/v/32476583/file.html
http://www15.zippyshare.com/v/37972377/file.html
http://www42.zippyshare.com/v/13542700/file.html
http://www56.zippyshare.com/v/59056011/file.html
http://www23.zippyshare.com/v/49596503/file.html
[/size]
Endless Love [HDRip 720p][VOSE][2014]
0 Puntos Score: 0/10
Visitas: 1634 Favoritos: 0
0 Comentarios Endless Love [HDRip 720p][VOSE][2014]
Este post no tiene comentarios. Sea el primero!
Para dejar un comentario Registrate! o.. eres ya usuario? Accede!