Mr. Peabody & Sherman [BRSCR][Castellano][2014]




Los personajes de la serie animada de los 60 'The Rocky & Bullwinkle Show', Mr. Peabody y Sherman, se cuelan en la gran pantalla adquiriendo una nueva dimensión 3D. En esta ocasión el perro parlante más inteligente del mundo, Mr. Peabody y su mascota Sherman, un enérgico niño bastante ingenuo, se adentrarán en nueva una aventura determinante en el curso de la historia universal. Cuando Sherman desastrosamente avería la máquina del tiempo, la peculiar pareja se ve obligada a recomponer los hechos y arreglar la máquina antes de que sea demasiado tarde y el continuo espacio-tiempo se destruya afectando irreparablemente a nuestra existencia.



Título: Las aventuras de Peabody y Sherman
Título original: Mr. Peabody & Sherman
Dirección: Rob Minkoff
País: Estados Unidos
Año: 2014
Fecha de estreno: 07/03/2014
Duración: 92 min
Género: Comedia, Animación, Aventuras
Calificación: Apta para todos los públicos
Reparto: Ariel Winter, Allison Janney, Ty Burrell, Stephen Colbert, Stephen Tobolowsky, Karan Brar, Adam Alexi-Malle, Ellie Kemper
Web: www.mrpeabodyandsherman.com
Distribuidora: 20th Century Fox
Productora: 20th Century Fox

General
Format                                   : AVI
Format/Info                              : Audio Video Interleave
File size                                : 746 MiB
Duration                                 : 1h 32mn
Overall bit rate                         : 1 128 Kbps
Writing application                      : VirtualDubMod 1.5.10.2 (build 2540/release)
Writing library                          : VirtualDubMod build 2540/release

Video
ID                                       : 0
Format                                   : MPEG-4 Visual
Format profile                           : Advanced [email protected]
Format settings, BVOP                    : 2
Format settings, QPel                    : No
Format settings, GMC                     : No warppoints
Format settings, Matrix                  : Default (MPEG)
Codec ID                                 : XVID
Codec ID/Hint                            : XviD
Duration                                 : 1h 32mn
Bit rate                                 : 926 Kbps
Width                                    : 640 pixels
Height                                   : 352 pixels
Display aspect ratio                     : 16:9
Frame rate                               : 25.000 fps
Color space                              : YUV
Chroma subsampling                       : 4:2:0
Bit depth                                : 8 bits
Scan type                                : Progressive
Compression mode                         : Lossy
Bits/(Pixel*Frame)                       : 0.164
Stream size                              : 612 MiB (82%)
Writing library                          : XviD 1.2.1 (UTC 2008-12-04)

Audio
ID                                       : 1
Format                                   : MPEG Audio
Format version                           : Version 1
Format profile                           : Layer 3
Codec ID                                 : 55
Codec ID/Hint                            : MP3
Duration                                 : 1h 32mn
Bit rate mode                            : Constant
Bit rate                                 : 192 Kbps
Channel(s)                               : 2 channels
Sampling rate                            : 44.1 KHz
Compression mode                         : Lossy
Stream size                              : 127 MiB (17%)
Alignment                                : Split accross interleaves
Interleave, duration                     : 40 ms (1.00 video frame)
Interleave, preload duration             : 500 ms






http://www6.zippyshare.com/v/81521642/file.html
http://www7.zippyshare.com/v/28509049/file.html
http://www49.zippyshare.com/v/29634231/file.html
http://www22.zippyshare.com/v/8552601/file.html
[/size]
Mr. Peabody & Sherman [BRSCR][Castellano][2014]
0 Puntos Score: 0/10
Visitas: 2178 Favoritos: 2
2 Comentarios Mr. Peabody & Sherman [BRSCR][Castellano][2014]
Buen aporte!! Gracias!!  
Muchas gracias.
Pero por sobre todo muchas gracias por no poner esa basura de "agregar enlaces a jd" que discrimina a los que usamos jd y da error.
Bracias absolutas.
Para dejar un comentario Registrate! o.. eres ya usuario? Accede!