Malditos Vecinos [TSHQ][Castellano][2014]




Mac (Seth Rogen) lleva una vida tranquila en compañía de su mujer y sus hijos hasta que, de repente, entra en contacto con el líder de una hermandad juvenil (Zac Efron). A partir de entonces, los dos hombres lucharán por imponer sus ideas y formas de vida. El líder de la hermandad no tendrá otra cosa que hacer que importunar a Mac de todas las maneras que se le ocurren. Así, tenemos una película que intenta reflejar la dificultad de conjugar la comodidad de los treinta y muchos con la rebeldía de los veintipocos. ¿Cuál de los dos se llevará el gato al agua?



Título: Malditos vecinos
Título original: Neighbors
Dirección: Nicholas Stoller
País: Estados Unidos
Año: 2014
Fecha de estreno: 09/05/2014
Duración: 96 min
Género: Comedia
Reparto: Seth Rogen, Rose Byrne, Zac Efron, Dave Franco, Christopher Mintz-Plasse, Lisa Kudrow, Jake M. Johnson, Carla Gallo, Chasty Ballesteros, Craig Roberts
Web: www.upiapphosting.com/neighbors/main/index.html
Distribuidora: Universal Pictures
Productora: Universal Pictures, Point Grey Pictures

General
Format                                   : MPEG-4
Format profile                           : Base Media
Codec ID                                 : isom
File size                                : 544 MiB
Duration                                 : 1h 30mn
Overall bit rate mode                    : Variable
Overall bit rate                         : 837 Kbps
Writing application                      : Lavf54.63.104

Video
ID                                       : 1
Format                                   : AVC
Format/Info                              : Advanced Video Codec
Format profile                           : [email protected]
Format settings, CABAC                   : Yes
Format settings, ReFrames                : 4 frames
Codec ID                                 : avc1
Codec ID/Info                            : Advanced Video Coding
Duration                                 : 1h 30mn
Bit rate                                 : 750 Kbps
Width                                    : 720 pixels
Height                                   : 288 pixels
Display aspect ratio                     : 2.500
Frame rate mode                          : Constant
Frame rate                               : 29.970 fps
Color space                              : YUV
Chroma subsampling                       : 4:2:0
Bit depth                                : 8 bits
Scan type                                : Progressive
Bits/(Pixel*Frame)                       : 0.121
Stream size                              : 487 MiB (89%)
Writing library                          : x264 core 120 r2151 a3f4407
Encoding settings                        : cabac=1 / ref=3 / deblock=1:0:0 / analyse=0x3:0x113 / me=hex / subme=7 / psy=1 / psy_rd=1.00:0.00 / mixed_ref=1 / me_range=16 / chroma_me=1 / trellis=1 / 8x8dct=1 / cqm=0 / deadzone=21,11 / fast_pskip=1 / chroma_qp_offset=-2 / threads=16 / sliced_threads=0 / nr=0 / decimate=1 / interlaced=0 / bluray_compat=0 / constrained_intra=0 / bframes=3 / b_pyramid=2 / b_adapt=1 / b_bias=0 / direct=1 / weightb=1 / open_gop=0 / weightp=2 / keyint=25 / keyint_min=2 / scenecut=40 / intra_refresh=0 / rc_lookahead=25 / rc=abr / mbtree=1 / bitrate=750 / ratetol=1.0 / qcomp=0.60 / qpmin=0 / qpmax=69 / qpstep=4 / ip_ratio=1.40 / aq=1:1.00

Audio
ID                                       : 2
Format                                   : AAC
Format/Info                              : Advanced Audio Codec
Format profile                           : LC
Codec ID                                 : 40
Duration                                 : 1h 30mn
Bit rate mode                            : Variable
Bit rate                                 : 82.7 Kbps
Maximum bit rate                         : 128 Kbps
Channel(s)                               : 2 channels
Channel positions                        : Front: L R
Sampling rate                            : 24.0 KHz
Compression mode                         : Lossy
Stream size                              : 53.8 MiB (10%)






http://www57.zippyshare.com/v/96903801/file.html
http://www74.zippyshare.com/v/19341257/file.html
http://www77.zippyshare.com/v/27765039/file.html
[/size]
Malditos Vecinos [TSHQ][Castellano][2014]
15 Puntos Score: 7.5/10
Visitas: 5288 Favoritos: 1
Ver los usuarios que votaron...
0 Comentarios Malditos Vecinos [TSHQ][Castellano][2014]
Este post no tiene comentarios. Sea el primero!
Para dejar un comentario Registrate! o.. eres ya usuario? Accede!