Rompenieves [HDRip 720p][Castellano][2013]




Año 2031. Después de un fallido experimento para frenar el calentamiento global, todo el planeta está congelado. La humanidad ha sufrido una Nueva Edad de Hielo y los únicos supervivientes consiguen llegar con dificultades hasta Piercer Snow (Rompe Nieves), un tren sin destino final que viaja bajo tierra alrededor del mundo alimentándose de un continuo motor de movimiento. Los vagones del tren se convierten en el único refugio disponible para los últimos humanos y, en estas circunstancias, todos intentan sobrevivir aunque las duras condiciones no se lo faciliten. Así se construirá un microcosmos reflejo de la actual sociedad, estructura de clases, odios, rencores, privilegios y prejuicios, aunque también comienzan nuevas relaciones de amor y amistad.



Título: Snowpiercer (Rompenieves)
Título original: Snowpiercer
Dirección: Joon-ho Bong
País: Francia, Estados Unidos, Corea del sur, República Checa
Año: 2013
Fecha de estreno: 09/05/2014
Duración: 126 min
Género: Drama, Acción, Ciencia ficción
Reparto: Chris Evans, Jamie Bell, John Hurt, Tilda Swinton, Alison Pill, Octavia Spencer, Ewen Bremner, Kang-ho Song, Kenny Doughty, Steve Park
Distribuidora: No disponible
Productora: Stillking Films, CJ Entertainment, Moho Films, Opus Pictures, SnowPiercer

General
Format                                   : MPEG-4
Format profile                           : Base Media / Version 2
Codec ID                                 : mp42
File size                                : 991 MiB
Duration                                 : 2h 5mn
Overall bit rate mode                    : Variable
Overall bit rate                         : 1 100 Kbps
Encoded date                             : UTC 2014-05-09 17:14:31
Tagged date                              : UTC 2014-05-09 17:51:39
Writing application                      : DVDFab

Video
ID                                       : 1
Format                                   : AVC
Format/Info                              : Advanced Video Codec
Format profile                           : [email protected]
Format settings, CABAC                   : Yes
Format settings, ReFrames                : 1 frame
Format settings, GOP                     : M=1, N=24
Codec ID                                 : avc1
Codec ID/Info                            : Advanced Video Coding
Duration                                 : 2h 5mn
Bit rate mode                            : Variable
Bit rate                                 : 968 Kbps
Width                                    : 1 280 pixels
Height                                   : 694 pixels
Display aspect ratio                     : 1.85:1
Frame rate mode                          : Variable
Frame rate                               : 23.976 fps
Minimum frame rate                       : 23.974 fps
Maximum frame rate                       : 23.981 fps
Color space                              : YUV
Chroma subsampling                       : 4:2:0
Bit depth                                : 8 bits
Scan type                                : Progressive
Bits/(Pixel*Frame)                       : 0.045
Stream size                              : 871 MiB (88%)
Writing library                          : x264 core
Encoded date                             : UTC 2014-05-09 17:14:31
Tagged date                              : UTC 2014-05-09 17:51:35
Color primaries                          : BT.709-5, BT.1361, IEC 61966-2-4, SMPTE RP177
Transfer characteristics                 : BT.709-5, BT.1361
Matrix coefficients                      : BT.709-5, BT.1361, IEC 61966-2-4 709, SMPTE RP177

Audio
ID                                       : 2
Format                                   : AAC
Format/Info                              : Advanced Audio Codec
Format profile                           : LC
Codec ID                                 : 40
Duration                                 : 2h 5mn
Bit rate mode                            : Variable
Bit rate                                 : 128 Kbps
Maximum bit rate                         : 165 Kbps
Channel(s)                               : 2 channels
Channel positions                        : Front: L R
Sampling rate                            : 48.0 KHz
Compression mode                         : Lossy
Stream size                              : 115 MiB (12%)
Language                                 : Spanish
Encoded date                             : UTC 2014-05-09 17:14:31
Tagged date                              : UTC 2014-05-09 17:50:32






http://www52.zippyshare.com/v/63981492/file.html
http://www49.zippyshare.com/v/18502170/file.html
http://www63.zippyshare.com/v/7719851/file.html
http://www25.zippyshare.com/v/45294661/file.html
http://www78.zippyshare.com/v/17345312/file.html
[/size]
Rompenieves [HDRip 720p][Castellano][2013]
10 Puntos Score: 10/10
Visitas: 2490 Favoritos: 0
Ver los usuarios que votaron...
3 Comentarios Rompenieves [HDRip 720p][Castellano][2013]
SPOILERS que se tomaron los guionistas, cuando escribieron las escenas del puente de fin de a?
Gracias la estaba buscando en espa?
gracias por compartir
Para dejar un comentario Registrate! o.. eres ya usuario? Accede!