The Amazing Spiderman 2 [DVDSCR][Latino][2014]




Tobey Marshall (Aaron Paul) es un humilde mecánico que intenta sacar adelante su taller de reparaciones de la mejor manera posible. Como el dinero no le llega, participa en carreras ilegales al volante de coches clásicos cuyos motores han sido trucados. Cuando está a punto de saldar sus deudas, el ex piloto de NASCAR Dino Brewster (Dominic Cooper) le delata. Tobey pasa dos años en la cárcel. Cuando sale, sólo piensa en vengarse de Dino. Pero para ello tendrá que recorrer los Estados Unidos de costa a costa, en una contrarreloj muy peligrosa porque la policía irá siempre pisándole los talones.



Título: The Amazing Spider-Man 2: El poder de Electro
Título original: The Amazing Spider-Man 2
Dirección: Marc Webb
País: Estados Unidos
Año: 2014
Fecha de estreno: 16/04/2014
Duración: 142 min
Género: Aventuras, Acción, Fantástico
Calificación: No recomendada para menores de 7 años
Reparto: Emma Stone, Andrew Garfield, Dane DeHaan, Jamie Foxx, Martin Sheen, Paul Giamatti, Felicity Jones, Colm Feore, Sally Field, Chris Cooper
Web: The Amazing Spider-Man 2? | Official Movie Site | Sony Pictures International
Distribuidora: Sony Pictures
Productora: Marvel Studios

General
Format                                   : MPEG-4
Format profile                           : Base Media
Codec ID                                 : isom
File size                                : 817 MiB
Duration                                 : 2h 16mn
Overall bit rate mode                    : Variable
Overall bit rate                         : 834 Kbps
Album                                    : THE AMAZING SPIDERMAN 2 2014
Writing application                      : Lavf54.63.104

Video
ID                                       : 1
Format                                   : AVC
Format/Info                              : Advanced Video Codec
Format profile                           : [email protected]
Format settings, CABAC                   : Yes
Format settings, ReFrames                : 4 frames
Codec ID                                 : avc1
Codec ID/Info                            : Advanced Video Coding
Duration                                 : 2h 16mn
Bit rate                                 : 750 Kbps
Width                                    : 720 pixels
Height                                   : 288 pixels
Display aspect ratio                     : 2.500
Frame rate mode                          : Constant
Frame rate                               : 23.976 fps
Color space                              : YUV
Chroma subsampling                       : 4:2:0
Bit depth                                : 8 bits
Scan type                                : Progressive
Bits/(Pixel*Frame)                       : 0.151
Stream size                              : 732 MiB (90%)
Writing library                          : x264 core 120 r2151 a3f4407
Encoding settings                        : cabac=1 / ref=3 / deblock=1:0:0 / analyse=0x3:0x113 / me=hex / subme=7 / psy=1 / psy_rd=1.00:0.00 / mixed_ref=1 / me_range=16 / chroma_me=1 / trellis=1 / 8x8dct=1 / cqm=0 / deadzone=21,11 / fast_pskip=1 / chroma_qp_offset=-2 / threads=16 / sliced_threads=0 / nr=0 / decimate=1 / interlaced=0 / bluray_compat=0 / constrained_intra=0 / bframes=3 / b_pyramid=2 / b_adapt=1 / b_bias=0 / direct=1 / weightb=1 / open_gop=0 / weightp=2 / keyint=25 / keyint_min=2 / scenecut=40 / intra_refresh=0 / rc_lookahead=25 / rc=abr / mbtree=1 / bitrate=750 / ratetol=1.0 / qcomp=0.60 / qpmin=0 / qpmax=69 / qpstep=4 / ip_ratio=1.40 / aq=1:1.00

Audio
ID                                       : 2
Format                                   : AAC
Format/Info                              : Advanced Audio Codec
Format profile                           : LC
Codec ID                                 : 40
Duration                                 : 2h 16mn
Duration_LastFrame                       : -21ms
Bit rate mode                            : Variable
Bit rate                                 : 82.7 Kbps
Maximum bit rate                         : 128 Kbps
Channel(s)                               : 2 channels
Channel positions                        : Front: L R
Sampling rate                            : 24.0 KHz
Compression mode                         : Lossy
Stream size                              : 81.0 MiB (10%)






http://www52.zippyshare.com/v/35363030/file.html
http://www54.zippyshare.com/v/66313256/file.html
http://www25.zippyshare.com/v/47690761/file.html
http://www14.zippyshare.com/v/374321/file.html
http://www10.zippyshare.com/v/78958169/file.html
The Amazing Spiderman 2 [DVDSCR][Latino][2014]
0 Puntos Score: 0/10
Visitas: 11711 Favoritos: 2
9 Comentarios The Amazing Spiderman 2 [DVDSCR][Latino][2014]
la sinopsis esta mal jejeje pero bueno suerte!
Si la sinopsis esta mal lol... podrias subirlo a otro servidor? zippyshare no me responde!
esta si que no la vi el hombre ara?
yo tampoco pero vere esta de el hombre ara?
mecanico en las ma?
Chamo... creo que hay algo raro en la sinopsis.

JAJAJAJAJAJAJAJA
@xskebix No se escucha el audio... y estuve 1 hora y media descargandola... solucionalo por favor!!
es grabada en cine ?
Que tal el audio es de cine?
Para dejar un comentario Registrate! o.. eres ya usuario? Accede!