Aint Them Bodies Saints [HDR 720p][Latino][2013]




Bob y Ruth son una joven pareja de fugitivos en los años 70. Enamorados y despreocupadamente felices, sobreviven gracias a los delitos que cometen, ajenos a los peligros de vivir al margen de la ley. Un día Ruth, accidentalmente, mata a uno de los policías que los están persiguiendo. Bob asume la culpa y es arrestado. Cuatro años después, incapaz de soportar por mas tiempo la separación de su mujer y de su hija, a la que no ha llegado a conocer, Bob escapa de prisión con un único objetivo: recuperarlas.



Título: En un lugar sin ley
Título original: Ain't Them Bodies Saints
Año: 2013
Duración: 105 minutos
País: EE.UU.
Género: Drama
Estudio: IFC Films

General
Format                                   : Matroska
Format version                           : Version 4 / Version 2
File size                                : 981 MiB
Duration                                 : 1h 36mn
Overall bit rate                         : 1 428 Kbps
Encoded date                             : UTC 2014-04-25 00:10:55
Writing application                      : mkvmerge v6.9.1 ('Blue Panther') 64bit built on Apr 18 2014 18:23:38
Writing library                          : libebml v1.3.0 + libmatroska v1.4.1

Video
ID                                       : 1
Format                                   : AVC
Format/Info                              : Advanced Video Codec
Format profile                           : [email protected]
Format settings, CABAC                   : Yes
Format settings, ReFrames                : 1 frame
Format settings, GOP                     : M=1, N=24
Codec ID                                 : V_MPEG4/ISO/AVC
Duration                                 : 1h 36mn
Bit rate                                 : 1 016 Kbps
Width                                    : 1 280 pixels
Height                                   : 536 pixels
Display aspect ratio                     : 2.40:1
Frame rate                               : 23.976 fps
Color space                              : YUV
Chroma subsampling                       : 4:2:0
Bit depth                                : 8 bits
Scan type                                : Progressive
Bits/(Pixel*Frame)                       : 0.062
Stream size                              : 697 MiB (71%)
Writing library                          : x264 core
Default                                  : Yes
Forced                                   : No
Color primaries                          : BT.709-5, BT.1361, IEC 61966-2-4, SMPTE RP177
Transfer characteristics                 : BT.709-5, BT.1361
Matrix coefficients                      : BT.709-5, BT.1361, IEC 61966-2-4 709, SMPTE RP177

Audio
ID                                       : 2
Format                                   : AC-3
Format/Info                              : Audio Coding 3
Mode extension                           : CM (complete main)
Format settings, Endianness              : Big
Codec ID                                 : A_AC3
Duration                                 : 1h 36mn
Bit rate mode                            : Constant
Bit rate                                 : 384 Kbps
Channel(s)                               : 6 channels
Channel positions                        : Front: L C R, Side: L R, LFE
Sampling rate                            : 48.0 KHz
Bit depth                                : 16 bits
Compression mode                         : Lossy
Stream size                              : 264 MiB (27%)
Title                                    : LATINO
Language                                 : Spanish
Default                                  : Yes
Forced                                   : No






http://www1.zippyshare.com/v/32666091/file.html
http://www29.zippyshare.com/v/54217286/file.html
http://www31.zippyshare.com/v/866074/file.html
http://www9.zippyshare.com/v/35762405/file.html
http://www27.zippyshare.com/v/80639921/file.html
[/size]
Aint Them Bodies Saints [HDR 720p][Latino][2013]
0 Puntos Score: 0/10
Visitas: 1801 Favoritos: 0
2 Comentarios Aint Them Bodies Saints [HDR 720p][Latino][2013]
No me gusta el servidor, gracias.
Para dejar un comentario Registrate! o.. eres ya usuario? Accede!