Aint Them Bodies Saints [HDR 720p][VOSE][2013]




Bob y Ruth son una joven pareja de fugitivos en los años 70. Enamorados y despreocupadamente felices, sobreviven gracias a los delitos que cometen, ajenos a los peligros de vivir al margen de la ley. Un día Ruth, accidentalmente, mata a uno de los policías que los están persiguiendo. Bob asume la culpa y es arrestado. Cuatro años después, incapaz de soportar por mas tiempo la separación de su mujer y de su hija, a la que no ha llegado a conocer, Bob escapa de prisión con un único objetivo: recuperarlas.



Título: En un lugar sin ley
Título original: Ain't Them Bodies Saints
Año: 2013
Duración: 105 minutos
País: EE.UU.
Género: Drama
Estudio: IFC Films

General
Format                                   : AVI
Format/Info                              : Audio Video Interleave
Format profile                           : OpenDML
File size                                : 1.54 GiB
Duration                                 : 1h 35mn
Overall bit rate                         : 2 302 Kbps
Writing application                      : Lavf52.84.0

Video
ID                                       : 0
Format                                   : MPEG-4 Visual
Format profile                           : [email protected]
Format settings, BVOP                    : No
Format settings, QPel                    : No
Format settings, GMC                     : No warppoints
Format settings, Matrix                  : Default (H.263)
Codec ID                                 : XVID
Codec ID/Hint                            : XviD
Duration                                 : 1h 35mn
Bit rate                                 : 1 968 Kbps
Width                                    : 1 280 pixels
Height                                   : 720 pixels
Display aspect ratio                     : 16:9
Frame rate                               : 23.976 fps
Color space                              : YUV
Chroma subsampling                       : 4:2:0
Bit depth                                : 8 bits
Scan type                                : Progressive
Compression mode                         : Lossy
Bits/(Pixel*Frame)                       : 0.089
Stream size                              : 1.32 GiB (85%)
Writing library                          : Lavc52.97.0

Audio
ID                                       : 1
Format                                   : MPEG Audio
Format version                           : Version 1
Format profile                           : Layer 3
Mode                                     : Joint stereo
Mode extension                           : MS Stereo
Codec ID                                 : 55
Codec ID/Hint                            : MP3
Duration                                 : 1h 35mn
Bit rate mode                            : Constant
Bit rate                                 : 320 Kbps
Channel(s)                               : 2 channels
Sampling rate                            : 48.0 KHz
Compression mode                         : Lossy
Stream size                              : 220 MiB (14%)
Alignment                                : Aligned on interleaves
Interleave, duration                     : 24 ms (0.58 video frame)
Writing library                          : LAME3.98.4






http://www46.zippyshare.com/v/44569324/file.html
http://www61.zippyshare.com/v/26905906/file.html
http://www6.zippyshare.com/v/20515906/file.html
http://www20.zippyshare.com/v/57613996/file.html
http://www71.zippyshare.com/v/8429573/file.html
http://www16.zippyshare.com/v/87296922/file.html
http://www45.zippyshare.com/v/10020487/file.html
http://www75.zippyshare.com/v/33662951/file.html
[/size]
Aint Them Bodies Saints [HDR 720p][VOSE][2013]
0 Puntos Score: 0/10
Visitas: 777 Favoritos: 0
0 Comentarios Aint Them Bodies Saints [HDR 720p][VOSE][2013]
Este post no tiene comentarios. Sea el primero!
Para dejar un comentario Registrate! o.. eres ya usuario? Accede!