The Machine [HDRip 720p][Castellano][2014]




Con un mundo inmerso en la segunda Guerra Fría, el Ministerio de Defensa Británico busca un arma que le permita ganar la batalla: la creación de un soldado androide, y nadie mejor para conseguirlo que el brillante programador Vincent McCarthy. Un error de programación en su primer intento le llevó a esconder aún más sus investigaciones y refugiarse bajo tierra de miradas indiscretas. Pronto elaborará la maquina perfecta, el clon humano, la simulación de una mujer bella y a la vez peligrosa que será la clave para terminar con la guerra. Sin embargo, el programador, no contó con sensibilidad humana que esta máquina iba a desarrollar, y que pondría todos los planes del gobierno en peligro.



Título: The Machine
Título original: The Machine
País: El Reino Unido
Año: 2013
Fecha de estreno: 09/05/2014
Duración: 91 min
Género: Thriller, Ciencia ficción
Reparto: Caity Lotz, Toby Stephens, Denis Lawson
Distribuidora: Alimpro Films
Productora: Red & Black Films

General
Format                                   : Matroska
Format version                           : Version 4 / Version 2
File size                                : 888 MiB
Duration                                 : 1h 30mn
Overall bit rate                         : 1 372 Kbps
Encoded date                             : UTC 2014-05-09 12:05:14
Writing application                      : mkvmerge v6.9.1 ('Blue Panther') 64bit built on Apr 18 2014 18:23:38
Writing library                          : libebml v1.3.0 + libmatroska v1.4.1

Video
ID                                       : 1
Format                                   : AVC
Format/Info                              : Advanced Video Codec
Format profile                           : [email protected]
Format settings, CABAC                   : Yes
Format settings, ReFrames                : 4 frames
Codec ID                                 : V_MPEG4/ISO/AVC
Duration                                 : 1h 30mn
Bit rate                                 : 986 Kbps
Width                                    : 1 280 pixels
Height                                   : 720 pixels
Display aspect ratio                     : 16:9
Frame rate                               : 23.976 fps
Color space                              : YUV
Chroma subsampling                       : 4:2:0
Bit depth                                : 8 bits
Scan type                                : Progressive
Bits/(Pixel*Frame)                       : 0.045
Stream size                              : 622 MiB (70%)
Writing library                          : x264 core 135 r2 f0c1c53
Encoding settings                        : cabac=1 / ref=4 / deblock=1:-1:-1 / analyse=0x3:0x133 / me=umh / subme=9 / psy=1 / psy_rd=1.00:0.15 / mixed_ref=1 / me_range=24 / chroma_me=1 / trellis=2 / 8x8dct=1 / cqm=0 / deadzone=21,11 / fast_pskip=0 / chroma_qp_offset=-3 / threads=36 / lookahead_threads=3 / sliced_threads=0 / nr=0 / decimate=1 / interlaced=0 / bluray_compat=0 / constrained_intra=0 / bframes=3 / b_pyramid=2 / b_adapt=2 / b_bias=0 / direct=3 / weightb=1 / open_gop=0 / weightp=2 / keyint=250 / keyint_min=23 / scenecut=40 / intra_refresh=0 / rc_lookahead=60 / rc=2pass / mbtree=1 / bitrate=986 / ratetol=1.0 / qcomp=0.60 / qpmin=0 / qpmax=69 / qpstep=4 / cplxblur=20.0 / qblur=0.5 / vbv_maxrate=31250 / vbv_bufsize=31250 / nal_hrd=none / ip_ratio=1.40 / aq=1:1.00
Default                                  : Yes
Forced                                   : No
Color primaries                          : BT.709-5, BT.1361, IEC 61966-2-4, SMPTE RP177
Matrix coefficients                      : BT.709-5, BT.1361, IEC 61966-2-4 709, SMPTE RP177

Audio
ID                                       : 2
Format                                   : AC-3
Format/Info                              : Audio Coding 3
Mode extension                           : CM (complete main)
Format settings, Endianness              : Big
Codec ID                                 : A_AC3
Duration                                 : 1h 30mn
Bit rate mode                            : Constant
Bit rate                                 : 384 Kbps
Channel(s)                               : 2 channels
Channel positions                        : Front: L R
Sampling rate                            : 48.0 KHz
Bit depth                                : 16 bits
Compression mode                         : Lossy
Stream size                              : 248 MiB (28%)
Title                                    : CASTELLANO
Language                                 : Spanish
Default                                  : Yes
Forced                                   : No






http://www41.zippyshare.com/v/63068833/file.html
http://www64.zippyshare.com/v/93823487/file.html
http://www56.zippyshare.com/v/28533807/file.html
http://www31.zippyshare.com/v/13176723/file.html
http://www46.zippyshare.com/v/24709154/file.html
[/size]
The Machine [HDRip 720p][Castellano][2014]
10 Puntos Score: 10/10
Visitas: 60039 Favoritos: 2
Ver los usuarios que votaron...
1 Comentarios The Machine [HDRip 720p][Castellano][2014]
Gracias   , esta noche la veo  
Para dejar un comentario Registrate! o.. eres ya usuario? Accede!