Slaughter Is the Best Medicine [HDRip][VOSE][2014]




Vet conduce a su equipo de mercenarios disueltas en el traicionero horca de madera en una última misión para capturar al escurridizo Profesor Negro. Lo que iba a ser una misión simple extracción pronto se convierte en un viaje aterrador hacia la locura.



Título: Slaughter Is the Best Medicine
Genero : Accion,Thrillers,Misterio
Directores : Rishi Thaker
Escritores : Rishi Thaker
Reparto : Nigel WoodingsA.D. BarkerAndrew GibneyJames McCabeChris BattelleEdward C. ParkerBen WaldramCilente BosmanDave HolmesJak CarrJune BladonDaniel TeeRob ReinaldoLaurence CaultonPaul Hann

General
Format                                   : AVI
Format/Info                              : Audio Video Interleave
Format profile                           : OpenDML
File size                                : 1.53 GiB
Duration                                 : 1h 37mn
Overall bit rate                         : 2 241 Kbps
Writing application                      : Lavf52.84.0

Video
ID                                       : 0
Format                                   : MPEG-4 Visual
Codec ID                                 : FMP4
Duration                                 : 1h 37mn
Bit rate                                 : 2 098 Kbps
Width                                    : 864 pixels
Height                                   : 464 pixels
Display aspect ratio                     : 1.85:1
Frame rate                               : 29.970 fps
Color space                              : YUV
Chroma subsampling                       : 4:2:0
Compression mode                         : Lossy
Bits/(Pixel*Frame)                       : 0.175
Stream size                              : 1.43 GiB (94%)

Audio
ID                                       : 1
Format                                   : MPEG Audio
Format version                           : Version 1
Format profile                           : Layer 3
Mode                                     : Joint stereo
Mode extension                           : MS Stereo
Codec ID                                 : 55
Codec ID/Hint                            : MP3
Duration                                 : 1h 37mn
Bit rate mode                            : Constant
Bit rate                                 : 128 Kbps
Channel(s)                               : 2 channels
Sampling rate                            : 48.0 KHz
Compression mode                         : Lossy
Stream size                              : 89.2 MiB (6%)
Alignment                                : Aligned on interleaves
Interleave, duration                     : 24 ms (0.72 video frame)
Writing library                          : LAME3.98.4






http://www26.zippyshare.com/v/39561598/file.html
http://www6.zippyshare.com/v/43600083/file.html
http://www29.zippyshare.com/v/59042983/file.html
http://www52.zippyshare.com/v/64732805/file.html
http://www9.zippyshare.com/v/21932463/file.html
http://www42.zippyshare.com/v/33969667/file.html
http://www42.zippyshare.com/v/40888854/file.html
http://www56.zippyshare.com/v/45344216/file.html
[/size]
Slaughter Is the Best Medicine [HDRip][VOSE][2014]
0 Puntos Score: 0/10
Visitas: 2968 Favoritos: 0
0 Comentarios Slaughter Is the Best Medicine [HDRip][VOSE][2014]
Este post no tiene comentarios. Sea el primero!
Para dejar un comentario Registrate! o.. eres ya usuario? Accede!