Transcendence [CAM][VOSE][2014]




El doctor Will Caster (Johnny Depp) es el más prestigioso investigador en el campo de la Inteligencia Artificial. Ha creado una máquina que combina la inteligencia de todo lo conocido por el ser humano hasta ahora, incluyendo su rango de emociones. Sus controvertidos experimentos le han hecho famoso, y por eso sufre un intento de asesinato por parte de integristas que luchan contra sus avances tecnológicos. Sin embargo, el doctor Caster aprovecha esta circunstancia para regresar desde la muerte, convirtiéndose en la persona con el índice de inteligencia más alto que jamás haya pisado la Tierra.



Título: Transcendence
Título original: Transcendence
Dirección: Wally Pfister
País: El Reino Unido, Estados Unidos
Año: 2014
Fecha de estreno: 20/06/2014
Duración: -
Género: Drama, Acción, Ciencia ficción
Reparto: Johnny Depp, Paul Bettany, Rebecca Hall, Kate Mara, Morgan Freeman, Cillian Murphy, Cole Hauser, Clifton Collins Jr.
Distribuidora: eOne Films
Productora: Alcon Entertainment, Syncopy, Straight Up Films

General
Format                                   : MPEG-4
Format profile                           : Base Media
Codec ID                                 : isom
File size                                : 546 MiB
Duration                                 : 1h 30mn
Overall bit rate mode                    : Variable
Overall bit rate                         : 839 Kbps
Album                                    : Transcendence.2014.CAM.VOSE
Writing application                      : Lavf54.63.104

Video
ID                                       : 1
Format                                   : AVC
Format/Info                              : Advanced Video Codec
Format profile                           : [email protected]
Format settings, CABAC                   : Yes
Format settings, ReFrames                : 4 frames
Codec ID                                 : avc1
Codec ID/Info                            : Advanced Video Coding
Duration                                 : 1h 30mn
Bit rate                                 : 750 Kbps
Width                                    : 720 pixels
Height                                   : 320 pixels
Display aspect ratio                     : 2.25:1
Frame rate mode                          : Variable
Frame rate                               : 29.970 fps
Minimum frame rate                       : 14.985 fps
Maximum frame rate                       : 29.970 fps
Color space                              : YUV
Chroma subsampling                       : 4:2:0
Bit depth                                : 8 bits
Scan type                                : Progressive
Bits/(Pixel*Frame)                       : 0.109
Stream size                              : 488 MiB (89%)
Writing library                          : x264 core 120 r2151 a3f4407
Encoding settings                        : cabac=1 / ref=3 / deblock=1:0:0 / analyse=0x3:0x113 / me=hex / subme=7 / psy=1 / psy_rd=1.00:0.00 / mixed_ref=1 / me_range=16 / chroma_me=1 / trellis=1 / 8x8dct=1 / cqm=0 / deadzone=21,11 / fast_pskip=1 / chroma_qp_offset=-2 / threads=16 / sliced_threads=0 / nr=0 / decimate=1 / interlaced=0 / bluray_compat=0 / constrained_intra=0 / bframes=3 / b_pyramid=2 / b_adapt=1 / b_bias=0 / direct=1 / weightb=1 / open_gop=0 / weightp=2 / keyint=25 / keyint_min=2 / scenecut=40 / intra_refresh=0 / rc_lookahead=25 / rc=abr / mbtree=1 / bitrate=750 / ratetol=1.0 / qcomp=0.60 / qpmin=0 / qpmax=69 / qpstep=4 / ip_ratio=1.40 / aq=1:1.00

Audio
ID                                       : 2
Format                                   : AAC
Format/Info                              : Advanced Audio Codec
Format profile                           : LC
Codec ID                                 : 40
Duration                                 : 1h 30mn
Bit rate mode                            : Variable
Bit rate                                 : 82.7 Kbps
Maximum bit rate                         : 128 Kbps
Channel(s)                               : 2 channels
Channel positions                        : Front: L R
Sampling rate                            : 24.0 KHz
Compression mode                         : Lossy
Stream size                              : 53.8 MiB (10%)
Language                                 : English

Menu
00:00:00.000                             : Chapter 1
00:07:34.020                             : Chapter 2
00:15:08.007                             : Chapter 3
00:22:42.027                             : Chapter 4
00:30:16.014                             : Chapter 5
00:37:49.000                             : Chapter 6
00:45:23.020                             : Chapter 7
00:52:57.007                             : Chapter 8
01:00:31.027                             : Chapter 9
01:08:05.014                             : Chapter 10
01:15:38.000                             : Chapter 11
01:23:11.019                             : Chapter 12






http://www20.zippyshare.com/v/39696201/file.html
http://www25.zippyshare.com/v/3166501/file.html
http://www32.zippyshare.com/v/31021443/file.html
[/size]
Transcendence [CAM][VOSE][2014]
0 Puntos Score: 0/10
Visitas: 3269 Favoritos: 1
0 Comentarios Transcendence [CAM][VOSE][2014]
Este post no tiene comentarios. Sea el primero!
Para dejar un comentario Registrate! o.. eres ya usuario? Accede!