Lo Imposible [HDRip 720p][Latino][2012]




Más de 5.000 personas murieron en las costas de Tailandia como consecuencia del tsunami ocasionado por el devastador terremoto del oceano Índico que tuvo lugar el 26 de diciembre de 2004. Maria (Naomi Watts), su esposo Henry (Ewan McGregor) y sus dos hijos estaban allí pasando las vacaciones de invierno. De repente, una gigantesca ola negra entró por la terraza del hotel y lo arrasó todo. Maria emergió en un mar embravecido, lleno de cadáveres y suciedad. Y se dijo a sí misma que, si había sobrevivido, tenía que seguir luchando por su familia.



Título: Lo imposible
Título original: The Impossible
Dirección: Juan Antonio Bayona
País: España
Año: 2012
Fecha de estreno: 11/10/2012
Duración: 107 min
Género: Drama, Thriller
Calificación: No recomendada para menores de 12 años
Reparto: Ewan McGregor, Naomi Watts, Geraldine Chaplin, Tom Holland, Marta Etura, Oaklee Pendergast, Soenke Möhring, Dominic Power, Samuel Joslin, Bruce Blain
Guión: Sergio G. Sánchez
Web: www.loimposible-lapelicula.com
Distribuidora: Warner Bros. Pictures
Productora: Telecinco Cinema, Instituto de la Cinematografía y de las Artes Audiovisuales (ICAA), Canal+ España, Institut Valencia de Cinematografia (IVAC), Apaches Entertainment, Mediaset España, Generalitat Valenciana

General
Format                                   : Matroska
Format version                           : Version 2
File size                                : 1.02 GiB
Duration                                 : 1h 53mn
Overall bit rate                         : 1 282 Kbps
Encoded date                             : UTC 2013-04-12 14:45:29
Writing application                      : mkvmerge v3.4.0 ('Rapunzel') built on May 15 2010 09:38:20
Writing library                          : libebml v0.8.0 + libmatroska v0.9.0

Video
ID                                       : 1
Format                                   : AVC
Format/Info                              : Advanced Video Codec
Format profile                           : [email protected]
Format settings, CABAC                   : Yes
Format settings, ReFrames                : 4 frames
Codec ID                                 : V_MPEG4/ISO/AVC
Duration                                 : 1h 53mn
Bit rate                                 : 899 Kbps
Width                                    : 1 280 pixels
Height                                   : 544 pixels
Display aspect ratio                     : 2.35:1
Frame rate                               : 23.976 fps
Color space                              : YUV
Chroma subsampling                       : 4:2:0
Bit depth                                : 8 bits
Scan type                                : Progressive
Bits/(Pixel*Frame)                       : 0.054
Stream size                              : 709 MiB (68%)
Writing library                          : x264 core 98 r1649 20cbe10
Encoding settings                        : cabac=1 / ref=3 / deblock=1:0:0 / analyse=0x3:0x113 / me=hex / subme=7 / psy=1 / psy_rd=1.00:0.00 / mixed_ref=1 / me_range=16 / chroma_me=1 / trellis=1 / 8x8dct=1 / cqm=0 / deadzone=21,11 / fast_pskip=1 / chroma_qp_offset=-2 / threads=24 / sliced_threads=0 / nr=0 / decimate=1 / interlaced=0 / constrained_intra=0 / bframes=3 / b_pyramid=2 / b_adapt=1 / b_bias=0 / direct=1 / weightb=1 / weightp=2 / keyint=250 / keyint_min=25 / scenecut=40 / intra_refresh=0 / rc_lookahead=40 / rc=2pass / mbtree=1 / bitrate=899 / ratetol=1.0 / qcomp=0.60 / qpmin=10 / qpmax=51 / qpstep=4 / cplxblur=20.0 / qblur=0.5 / ip_ratio=1.40 / aq=1:1.00
Language                                 : Spanish
Default                                  : No
Forced                                   : No

Audio
ID                                       : 2
Format                                   : AC-3
Format/Info                              : Audio Coding 3
Mode extension                           : CM (complete main)
Format settings, Endianness              : Big
Codec ID                                 : A_AC3
Duration                                 : 1h 53mn
Bit rate mode                            : Constant
Bit rate                                 : 384 Kbps
Channel(s)                               : 6 channels
Channel positions                        : Front: L C R, Side: L R, LFE
Sampling rate                            : 48.0 KHz
Bit depth                                : 16 bits
Compression mode                         : Lossy
Stream size                              : 312 MiB (30%)
Language                                 : Spanish
Default                                  : Yes
Forced                                   : No

Text
ID                                       : 3
Format                                   : UTF-8
Codec ID                                 : S_TEXT/UTF8
Codec ID/Info                            : UTF-8 Plain Text
Language                                 : Spanish
Default                                  : Yes
Forced                                   : No






http://www44.zippyshare.com/v/46743607/file.html
http://www60.zippyshare.com/v/14687560/file.html
http://www30.zippyshare.com/v/8151315/file.html
http://www57.zippyshare.com/v/84316081/file.html
http://www30.zippyshare.com/v/65768784/file.html
http://www36.zippyshare.com/v/50659124/file.html
[/size]
Lo Imposible [HDRip 720p][Latino][2012]
5 Puntos Score: 5/10
Visitas: 5076 Favoritos: 0
Ver los usuarios que votaron...
8 Comentarios Lo Imposible [HDRip 720p][Latino][2012]
gracias! 720p es sin duda buena opcion =)
no la tenes en 1080p? y en mega? y con el audio latino sincronizado? ya es mucho pedir no? Gracias.
Cita DAMIAN32: Mostrar
no, no, no xD salu2
muchas gracias
Gracias exelente pelicula.
Gracias, links activos todavia.
gracias por el aporte!! los links todav?
Para dejar un comentario Registrate! o.. eres ya usuario? Accede!