Abduccion Extraterrestre [HDRip 720p][VOSE][2014]




Una familia de vacaciones se encuentra con una amenaza alienígena en este thriller basado en el fenómeno real ocurrido en Brown Mountain Lights, en Carolina del Norte.



Título original: Alien Abduction
Año: 2014
Duración: 85 min.
País: Estados Unidos
Director: Matty Beckerman
Guión: Robert Lewis
Música: Ben Weinman
Fotografía: Luke Geissbuhler
Reparto: Katherine Sigismund, Corey Eid, Riley Polanski, Jillian Clare, Peter Holden, Jeff Bowser, Kelley Hinman
Productora: Big Picture
Género: Ciencia ficción. Thriller. Terror

General
Format                                   : MPEG-4
Format profile                           : Base Media / Version 2
Codec ID                                 : mp42
File size                                : 960 MiB
Duration                                 : 1h 25mn
Overall bit rate mode                    : Variable
Overall bit rate                         : 1 569 Kbps
Encoded date                             : UTC 2014-05-06 21:46:53
Tagged date                              : UTC 2014-05-06 22:09:04
Writing application                      : DVDFab

Video
ID                                       : 1
Format                                   : AVC
Format/Info                              : Advanced Video Codec
Format profile                           : [email protected]
Format settings, CABAC                   : Yes
Format settings, ReFrames                : 1 frame
Codec ID                                 : avc1
Codec ID/Info                            : Advanced Video Coding
Duration                                 : 1h 25mn
Bit rate mode                            : Variable
Bit rate                                 : 1 436 Kbps
Width                                    : 1 280 pixels
Height                                   : 720 pixels
Display aspect ratio                     : 16:9
Frame rate mode                          : Variable
Frame rate                               : 23.976 fps
Minimum frame rate                       : 23.974 fps
Maximum frame rate                       : 23.981 fps
Color space                              : YUV
Chroma subsampling                       : 4:2:0
Bit depth                                : 8 bits
Scan type                                : Progressive
Bits/(Pixel*Frame)                       : 0.065
Stream size                              : 879 MiB (92%)
Writing library                          : x264 core
Encoded date                             : UTC 2014-05-06 21:46:53
Tagged date                              : UTC 2014-05-06 22:09:00
Color primaries                          : BT.709-5, BT.1361, IEC 61966-2-4, SMPTE RP177
Transfer characteristics                 : BT.709-5, BT.1361
Matrix coefficients                      : BT.709-5, BT.1361, IEC 61966-2-4 709, SMPTE RP177

Audio
ID                                       : 2
Format                                   : AAC
Format/Info                              : Advanced Audio Codec
Format profile                           : LC
Codec ID                                 : 40
Duration                                 : 1h 25mn
Bit rate mode                            : Variable
Bit rate                                 : 128 Kbps
Maximum bit rate                         : 190 Kbps
Channel(s)                               : 2 channels
Channel positions                        : Front: L R
Sampling rate                            : 48.0 KHz
Compression mode                         : Lossy
Stream size                              : 78.3 MiB (8%)
Encoded date                             : UTC 2014-05-06 21:46:53
Tagged date                              : UTC 2014-05-06 22:07:42






http://www67.zippyshare.com/v/21669248/file.html
http://www42.zippyshare.com/v/28389091/file.html
http://www27.zippyshare.com/v/19956311/file.html
http://www9.zippyshare.com/v/64646368/file.html
http://www64.zippyshare.com/v/92786888/file.html
[/size]
Abduccion Extraterrestre [HDRip 720p][VOSE][2014]
28 Puntos Score: 7/10
Visitas: 4708 Favoritos: 3
Ver los usuarios que votaron...
6 Comentarios Abduccion Extraterrestre [HDRip 720p][VOSE][2014]
gracias por el estreno
Excelente aporte, pero el ?
gracias +10, ya me pongo a descargar a ver que onda
parte 5 error descarga
Todos los links funcionando Ok!
Cita moivre: Mostrar
gracias por corroborar @moivre salu2
Para dejar un comentario Registrate! o.. eres ya usuario? Accede!