Khumba [HDRip 720p][Latino][2013]




Un peligroso espía internacional (Kevin Costner) ha decidido poner fin a su actividad con el objetivo de reconstruir su maltrecha relación con su mujer y su hija (Connie Nielsen y Hailee Steinfeld), a quienes tuvo que abandonar por su trabajo. Pero antes, el espía debe realizar una última misión: cazar al terrorista más buscado del mundo. La misión, ya de por sí arriesgada, se vuelve aún peor cuando su propia familia queda involucrada en ella.



Título original: Khumba
Título Hispano: Khumba La Cebra Sin Rayas
Año: 2013
Duración: 85 Minutos
País de realización: Sudáfrica
Director: Anthony Silverston
Guionistas: Raffaella Delle Donne, Anthony Silverston
Música a cargo de: Bruce Retief
Género: Animación. Comedia. Infantil
Temática: Animales

General
Format                                   : Matroska
Format version                           : Version 2
File size                                : 906 MiB
Duration                                 : 1h 25mn
Overall bit rate                         : 1 485 Kbps
Encoded date                             : UTC 2014-05-05 21:29:36
Writing application                      : mkvmerge v3.4.0 ('Rapunzel') built on May 15 2010 09:38:20
Writing library                          : libebml v0.8.0 + libmatroska v0.9.0

Video
ID                                       : 1
Format                                   : AVC
Format/Info                              : Advanced Video Codec
Format profile                           : [email protected]
Format settings, CABAC                   : Yes
Format settings, ReFrames                : 6 frames
Codec ID                                 : V_MPEG4/ISO/AVC
Duration                                 : 1h 25mn
Bit rate                                 : 1 100 Kbps
Width                                    : 1 280 pixels
Height                                   : 528 pixels
Display aspect ratio                     : 2.40:1
Frame rate                               : 23.976 fps
Color space                              : YUV
Chroma subsampling                       : 4:2:0
Bit depth                                : 8 bits
Scan type                                : Progressive
Bits/(Pixel*Frame)                       : 0.068
Stream size                              : 654 MiB (72%)
Writing library                          : x264 core 138 r2358 9e941d1
Encoding settings                        : cabac=1 / ref=6 / deblock=1:1:1 / analyse=0x3:0x113 / me=hex / subme=7 / psy=1 / psy_rd=0.40:0.00 / mixed_ref=1 / me_range=16 / chroma_me=1 / trellis=1 / 8x8dct=1 / cqm=0 / deadzone=21,11 / fast_pskip=1 / chroma_qp_offset=-2 / threads=18 / lookahead_threads=3 / sliced_threads=0 / nr=0 / decimate=1 / interlaced=0 / bluray_compat=0 / constrained_intra=0 / bframes=4 / b_pyramid=2 / b_adapt=1 / b_bias=0 / direct=1 / weightb=0 / open_gop=0 / weightp=2 / keyint=250 / keyint_min=23 / scenecut=40 / intra_refresh=0 / rc_lookahead=40 / rc=2pass / mbtree=1 / bitrate=1100 / ratetol=1.0 / qcomp=0.60 / qpmin=0 / qpmax=69 / qpstep=4 / cplxblur=20.0 / qblur=0.5 / ip_ratio=1.40 / aq=1:0.60
Language                                 : Spanish
Default                                  : No
Forced                                   : No

Audio
ID                                       : 2
Format                                   : AC-3
Format/Info                              : Audio Coding 3
Mode extension                           : CM (complete main)
Format settings, Endianness              : Big
Codec ID                                 : A_AC3
Duration                                 : 1h 25mn
Bit rate mode                            : Constant
Bit rate                                 : 384 Kbps
Channel(s)                               : 6 channels
Channel positions                        : Front: L C R, Side: L R, LFE
Sampling rate                            : 48.0 KHz
Bit depth                                : 16 bits
Compression mode                         : Lossy
Stream size                              : 234 MiB (26%)
Language                                 : Spanish
Default                                  : Yes
Forced                                   : No

Text
ID                                       : 3
Format                                   : UTF-8
Codec ID                                 : S_TEXT/UTF8
Codec ID/Info                            : UTF-8 Plain Text
Language                                 : Spanish
Default                                  : Yes
Forced                                   : No






http://www32.zippyshare.com/v/93565977/file.html
http://www10.zippyshare.com/v/70227888/file.html
http://www35.zippyshare.com/v/2448626/file.html
http://www7.zippyshare.com/v/47987286/file.html
http://www37.zippyshare.com/v/94771454/file.html
[/size]
Khumba [HDRip 720p][Latino][2013]
0 Puntos Score: 0/10
Visitas: 2861 Favoritos: 0
3 Comentarios Khumba [HDRip 720p][Latino][2013]
Creo que le herraste a la Sinopsiss...
Es tan buen esp?
Para dejar un comentario Registrate! o.. eres ya usuario? Accede!