3 Days to Kill [HDRip 720p][VOSE][2014]




Un peligroso espía internacional (Kevin Costner) ha decidido poner fin a su actividad con el objetivo de reconstruir su maltrecha relación con su mujer y su hija (Connie Nielsen y Hailee Steinfeld), a quienes tuvo que abandonar por su trabajo. Pero antes, el espía debe realizar una última misión: cazar al terrorista más buscado del mundo. La misión, ya de por sí arriesgada, se vuelve aún peor cuando su propia familia queda involucrada en ella.



Título: 3 días para matar
Título original: 3 days to kill
Dirección: McG
País: Estados Unidos
Año: 2014
Fecha de estreno: 09/05/2014
Duración: 113 min
Género: Criminal, Drama, Acción
Reparto: Amber Heard, Kevin Costner, Hailee Steinfeld, Connie Nielsen, Richard Sammel, Tómas Lemarquis, Eriq Ebouaney, Bruno Ricci
Web: www.3daystokill.tumblr.com
Distribuidora: TriPictures
Productora: Relativity Media, Wonderland Sound and Vision, EuropaCorp

General
Format                                   : MPEG-4
Format profile                           : Base Media / Version 2
Codec ID                                 : mp42
File size                                : 990 MiB
Duration                                 : 2h 2mn
Overall bit rate mode                    : Variable
Overall bit rate                         : 1 132 Kbps
Encoded date                             : UTC 2014-05-07 13:17:35
Tagged date                              : UTC 2014-05-07 13:40:52
Writing application                      : DVDFab

Video
ID                                       : 1
Format                                   : AVC
Format/Info                              : Advanced Video Codec
Format profile                           : [email protected]
Format settings, CABAC                   : Yes
Format settings, ReFrames                : 1 frame
Codec ID                                 : avc1
Codec ID/Info                            : Advanced Video Coding
Duration                                 : 2h 2mn
Bit rate mode                            : Variable
Bit rate                                 : 1 000 Kbps
Width                                    : 1 280 pixels
Height                                   : 536 pixels
Display aspect ratio                     : 2.40:1
Frame rate mode                          : Variable
Frame rate                               : 23.976 fps
Minimum frame rate                       : 23.974 fps
Maximum frame rate                       : 23.981 fps
Color space                              : YUV
Chroma subsampling                       : 4:2:0
Bit depth                                : 8 bits
Scan type                                : Progressive
Bits/(Pixel*Frame)                       : 0.061
Stream size                              : 874 MiB (88%)
Writing library                          : x264 core
Encoded date                             : UTC 2014-05-07 13:17:35
Tagged date                              : UTC 2014-05-07 13:40:48
Color primaries                          : BT.709-5, BT.1361, IEC 61966-2-4, SMPTE RP177
Transfer characteristics                 : BT.709-5, BT.1361
Matrix coefficients                      : BT.709-5, BT.1361, IEC 61966-2-4 709, SMPTE RP177

Audio
ID                                       : 2
Format                                   : AAC
Format/Info                              : Advanced Audio Codec
Format profile                           : LC
Codec ID                                 : 40
Duration                                 : 2h 2mn
Bit rate mode                            : Variable
Bit rate                                 : 128 Kbps
Maximum bit rate                         : 171 Kbps
Channel(s)                               : 2 channels
Channel positions                        : Front: L R
Sampling rate                            : 48.0 KHz
Compression mode                         : Lossy
Stream size                              : 112 MiB (11%)
Language                                 : English
Encoded date                             : UTC 2014-05-07 13:17:35
Tagged date                              : UTC 2014-05-07 13:40:06






http://www3.zippyshare.com/v/51663206/file.html
http://www24.zippyshare.com/v/7908596/file.html
http://www56.zippyshare.com/v/20848473/file.html
http://www26.zippyshare.com/v/66888447/file.html
http://www78.zippyshare.com/v/1989218/file.html
[/size]
3 Days to Kill [HDRip 720p][VOSE][2014]
10 Puntos Score: 10/10
Visitas: 2553 Favoritos: 0
Ver los usuarios que votaron...
4 Comentarios 3 Days to Kill [HDRip 720p][VOSE][2014]
vale cumpita...<Gracias
cuando va estar en latino
Para dejar un comentario Registrate! o.. eres ya usuario? Accede!