A Birders Guide To Everything[HDRip][VOSE][2013]




David Portnoy, un fanático de la observación de aves de 15 años de edad, piensa que ha hecho el descubrimiento de toda una vida. Así, en la víspera de un nuevo matrimonio de su padre, él se escapa en un viaje épico por carretera con sus mejores amigos para solidificar su lugar en la historia de la observación de aves.



Título: A Birder's Guide to Everything
Género: Comedia  
Idioma: Inglés
Duración: 86 min
Director: Rob Meyer
Actores: Ben Kingsley,Kodi Smit-McPhee,James Le Gros,Katie Chang,Alex Wolff,Briana Marin,Ethan Cohn,Daniela Lavender,Stephen Kunken,Adam Barrie,Ira Hawkins,Zandi Holup,Michael Chen,Andy Prosky,Lucas Near-Verbrugghe,Tobias Campbell,Jessica Perez,Leslie Korein,Samara Amat,Tracy Bundy,Joel Van Liew,Sam Kiernan,Will Laguzza,John Meyer,Daniel Berger

General
Format                                   : AVI
Format/Info                              : Audio Video Interleave
File size                                : 907 MiB
Duration                                 : 1h 26mn
Overall bit rate                         : 1 474 Kbps
Writing application                      : Lavf52.84.0

Video
ID                                       : 0
Format                                   : MPEG-4 Visual
Format profile                           : [email protected]
Format settings, BVOP                    : No
Format settings, QPel                    : No
Format settings, GMC                     : No warppoints
Format settings, Matrix                  : Default (H.263)
Codec ID                                 : XVID
Codec ID/Hint                            : XviD
Duration                                 : 1h 26mn
Bit rate                                 : 1 333 Kbps
Width                                    : 640 pixels
Height                                   : 272 pixels
Display aspect ratio                     : 2.35:1
Frame rate                               : 23.976 fps
Color space                              : YUV
Chroma subsampling                       : 4:2:0
Bit depth                                : 8 bits
Scan type                                : Progressive
Compression mode                         : Lossy
Bits/(Pixel*Frame)                       : 0.319
Stream size                              : 821 MiB (90%)
Writing library                          : Lavc52.97.0

Audio
ID                                       : 1
Format                                   : MPEG Audio
Format version                           : Version 1
Format profile                           : Layer 3
Mode                                     : Joint stereo
Mode extension                           : MS Stereo
Codec ID                                 : 55
Codec ID/Hint                            : MP3
Duration                                 : 1h 26mn
Bit rate mode                            : Constant
Bit rate                                 : 128 Kbps
Channel(s)                               : 2 channels
Sampling rate                            : 48.0 KHz
Compression mode                         : Lossy
Stream size                              : 78.8 MiB (9%)
Alignment                                : Aligned on interleaves
Interleave, duration                     : 24 ms (0.58 video frame)
Interleave, preload duration             : 24 ms
Writing library                          : LAME3.99r
Encoding settings                        : -m j -V 4 -q 3 -lowpass 17 -b 128






http://www22.zippyshare.com/v/43575335/file.html
http://www23.zippyshare.com/v/39568425/file.html
http://www51.zippyshare.com/v/55277723/file.html
http://www18.zippyshare.com/v/13299520/file.html
http://www61.zippyshare.com/v/24064102/file.html
[/size]
A Birders Guide To Everything[HDRip][VOSE][2013]
0 Puntos Score: 0/10
Visitas: 299 Favoritos: 0
0 Comentarios A Birders Guide To Everything[HDRip][VOSE][2013]
Este post no tiene comentarios. Sea el primero!
Para dejar un comentario Registrate! o.. eres ya usuario? Accede!