Jack Ryan [HDRip 720p][Latino][2014]




Jack Ryan (Chris Pine) es un joven analista de la CIA que descubre una trama de los rusos para provocar el colapso de la economía de los Estados Unidos. Ello implica la realización de un ataque terrorista en suelo americano, pero ni siquiera él mismo está seguro de cómo ni dónde va a producirse. De lo único que está seguro Jack Ryan es de que la cuenta atrás ha comenzado...



Título: Jack Ryan: Operación Sombra
Título original: Jack Ryan: Shadow Recruit
Dirección: Kenneth Branagh
País: Estados Unidos
Año: 2014
Fecha de estreno: 31/01/2014
Duración: 105 min
Género: Drama, Thriller, Acción
Reparto: Keira Knightley, Chris Pine, Kevin Costner, Nonso Anozie, Gemma Chan, Lenn Kudrjawizki
Web: www.operacionsombra.es
Distribuidora: Paramount Pictures
Productora: Di Bonaventura Pictures, Etalon film

General
Format                                   : MPEG-4
Format profile                           : Base Media / Version 2
Codec ID                                 : mp42
File size                                : 986 MiB
Duration                                 : 1h 45mn
Overall bit rate mode                    : Variable
Overall bit rate                         : 1 303 Kbps
Encoded date                             : UTC 2014-05-06 00:39:21
Tagged date                              : UTC 2014-05-06 01:01:40
Writing application                      : DVDFab

Video
ID                                       : 1
Format                                   : AVC
Format/Info                              : Advanced Video Codec
Format profile                           : [email protected]
Format settings, CABAC                   : Yes
Format settings, ReFrames                : 1 frame
Codec ID                                 : avc1
Codec ID/Info                            : Advanced Video Coding
Duration                                 : 1h 45mn
Bit rate mode                            : Variable
Bit rate                                 : 1 171 Kbps
Width                                    : 1 280 pixels
Height                                   : 654 pixels
Display aspect ratio                     : 1.957
Frame rate mode                          : Variable
Frame rate                               : 23.976 fps
Minimum frame rate                       : 23.974 fps
Maximum frame rate                       : 23.981 fps
Color space                              : YUV
Chroma subsampling                       : 4:2:0
Bit depth                                : 8 bits
Scan type                                : Progressive
Bits/(Pixel*Frame)                       : 0.058
Stream size                              : 886 MiB (90%)
Writing library                          : x264 core
Encoded date                             : UTC 2014-05-06 00:39:21
Tagged date                              : UTC 2014-05-06 01:01:36
Color primaries                          : BT.709-5, BT.1361, IEC 61966-2-4, SMPTE RP177
Transfer characteristics                 : BT.709-5, BT.1361
Matrix coefficients                      : BT.709-5, BT.1361, IEC 61966-2-4 709, SMPTE RP177

Audio
ID                                       : 2
Format                                   : AAC
Format/Info                              : Advanced Audio Codec
Format profile                           : LC
Codec ID                                 : 40
Duration                                 : 1h 45mn
Bit rate mode                            : Variable
Bit rate                                 : 128 Kbps
Maximum bit rate                         : 169 Kbps
Channel(s)                               : 2 channels
Channel positions                        : Front: L R
Sampling rate                            : 48.0 KHz
Compression mode                         : Lossy
Stream size                              : 96.6 MiB (10%)
Encoded date                             : UTC 2014-05-06 00:39:21
Tagged date                              : UTC 2014-05-06 01:01:30






http://www48.zippyshare.com/v/93131083/file.html
http://www50.zippyshare.com/v/18240331/file.html
http://www29.zippyshare.com/v/88004747/file.html
http://www21.zippyshare.com/v/665644/file.html
http://www38.zippyshare.com/v/73218854/file.html
[/size]
Jack Ryan [HDRip 720p][Latino][2014]
10 Puntos Score: 5/10
Visitas: 2597 Favoritos: 0
Ver los usuarios que votaron...
2 Comentarios Jack Ryan [HDRip 720p][Latino][2014]
Para dejar un comentario Registrate! o.. eres ya usuario? Accede!