Jack Ryan [DVDRip][VOSE][2014]




Jack Ryan (Chris Pine) es un joven analista de la CIA que descubre una trama de los rusos para provocar el colapso de la economía de los Estados Unidos. Ello implica la realización de un ataque terrorista en suelo americano, pero ni siquiera él mismo está seguro de cómo ni dónde va a producirse. De lo único que está seguro Jack Ryan es de que la cuenta atrás ha comenzado...



Título: Jack Ryan: Operación Sombra
Título original: Jack Ryan: Shadow Recruit
Dirección: Kenneth Branagh
País: Estados Unidos
Año: 2014
Fecha de estreno: 31/01/2014
Duración: 105 min
Género: Drama, Thriller, Acción
Reparto: Keira Knightley, Chris Pine, Kevin Costner, Nonso Anozie, Gemma Chan, Lenn Kudrjawizki
Web: www.operacionsombra.es
Distribuidora: Paramount Pictures
Productora: Di Bonaventura Pictures, Etalon film

General
Format                                   : AVI
Format/Info                              : Audio Video Interleave
File size                                : 908 MiB
Duration                                 : 1h 45mn
Overall bit rate                         : 1 200 Kbps
Writing application                      : Lavf52.84.0

Video
ID                                       : 0
Format                                   : MPEG-4 Visual
Format profile                           : [email protected]
Format settings, BVOP                    : No
Format settings, QPel                    : No
Format settings, GMC                     : No warppoints
Format settings, Matrix                  : Default (H.263)
Codec ID                                 : XVID
Codec ID/Hint                            : XviD
Duration                                 : 1h 45mn
Bit rate                                 : 995 Kbps
Width                                    : 720 pixels
Height                                   : 360 pixels
Display aspect ratio                     : 2.000
Frame rate                               : 23.976 fps
Color space                              : YUV
Chroma subsampling                       : 4:2:0
Bit depth                                : 8 bits
Scan type                                : Progressive
Compression mode                         : Lossy
Bits/(Pixel*Frame)                       : 0.160
Stream size                              : 753 MiB (83%)
Writing library                          : Lavc52.97.0

Audio
ID                                       : 1
Format                                   : MPEG Audio
Format version                           : Version 1
Format profile                           : Layer 3
Mode                                     : Joint stereo
Mode extension                           : MS Stereo
Codec ID                                 : 55
Codec ID/Hint                            : MP3
Duration                                 : 1h 45mn
Bit rate mode                            : Constant
Bit rate                                 : 192 Kbps
Channel(s)                               : 2 channels
Sampling rate                            : 48.0 KHz
Compression mode                         : Lossy
Stream size                              : 145 MiB (16%)
Alignment                                : Aligned on interleaves
Interleave, duration                     : 24 ms (0.58 video frame)
Writing library                          : LAME3.98.4






http://www33.zippyshare.com/v/6822287/file.html
http://www5.zippyshare.com/v/27405033/file.html
http://www35.zippyshare.com/v/77548296/file.html
http://www59.zippyshare.com/v/85261406/file.html
http://www76.zippyshare.com/v/97764763/file.html
[/size]
Jack Ryan [DVDRip][VOSE][2014]
10 Puntos Score: 10/10
Visitas: 1369 Favoritos: 0
Ver los usuarios que votaron...
1 Comentarios Jack Ryan [DVDRip][VOSE][2014]
Para dejar un comentario Registrate! o.. eres ya usuario? Accede!