Jack Ryan [BRSCR][Castellano][2014]




Jack Ryan (Chris Pine) es un joven analista de la CIA que descubre una trama de los rusos para provocar el colapso de la economía de los Estados Unidos. Ello implica la realización de un ataque terrorista en suelo americano, pero ni siquiera él mismo está seguro de cómo ni dónde va a producirse. De lo único que está seguro Jack Ryan es de que la cuenta atrás ha comenzado...



Título: Jack Ryan: Operación Sombra
Título original: Jack Ryan: Shadow Recruit
Dirección: Kenneth Branagh
País: Estados Unidos
Año: 2014
Fecha de estreno: 31/01/2014
Duración: 105 min
Género: Drama, Thriller, Acción
Reparto: Keira Knightley, Chris Pine, Kevin Costner, Nonso Anozie, Gemma Chan, Lenn Kudrjawizki
Web: www.operacionsombra.es
Distribuidora: Paramount Pictures
Productora: Di Bonaventura Pictures, Etalon film

General
Format                                   : MPEG-4
Format profile                           : Base Media
Codec ID                                 : isom
File size                                : 634 MiB
Duration                                 : 1h 45mn
Overall bit rate mode                    : Variable
Overall bit rate                         : 838 Kbps
Writing application                      : Lavf54.63.104

Video
ID                                       : 1
Format                                   : AVC
Format/Info                              : Advanced Video Codec
Format profile                           : [email protected]
Format settings, CABAC                   : Yes
Format settings, ReFrames                : 4 frames
Codec ID                                 : avc1
Codec ID/Info                            : Advanced Video Coding
Duration                                 : 1h 45mn
Source duration                          : 5mn 35s
Bit rate                                 : 750 Kbps
Width                                    : 720 pixels
Height                                   : 304 pixels
Display aspect ratio                     : 2.35:1
Frame rate mode                          : Constant
Frame rate                               : 23.976 fps
Color space                              : YUV
Chroma subsampling                       : 4:2:0
Bit depth                                : 8 bits
Scan type                                : Progressive
Bits/(Pixel*Frame)                       : 0.143
Stream size                              : 568 MiB (90%)
Source stream size                       : 568 MiB (90%)
Writing library                          : x264 core 120 r2151 a3f4407
Encoding settings                        : cabac=1 / ref=3 / deblock=1:0:0 / analyse=0x3:0x113 / me=hex / subme=7 / psy=1 / psy_rd=1.00:0.00 / mixed_ref=1 / me_range=16 / chroma_me=1 / trellis=1 / 8x8dct=1 / cqm=0 / deadzone=21,11 / fast_pskip=1 / chroma_qp_offset=-2 / threads=16 / sliced_threads=0 / nr=0 / decimate=1 / interlaced=0 / bluray_compat=0 / constrained_intra=0 / bframes=3 / b_pyramid=2 / b_adapt=1 / b_bias=0 / direct=1 / weightb=1 / open_gop=0 / weightp=2 / keyint=25 / keyint_min=2 / scenecut=40 / intra_refresh=0 / rc_lookahead=25 / rc=abr / mbtree=1 / bitrate=750 / ratetol=1.0 / qcomp=0.60 / qpmin=0 / qpmax=69 / qpstep=4 / ip_ratio=1.40 / aq=1:1.00
mdhd_Duration                            : 6348546

Audio
ID                                       : 2
Format                                   : AAC
Format/Info                              : Advanced Audio Codec
Format profile                           : LC
Codec ID                                 : 40
Duration                                 : 1h 45mn
Duration_LastFrame                       : -35ms
Bit rate mode                            : Variable
Bit rate                                 : 82.7 Kbps
Maximum bit rate                         : 128 Kbps
Channel(s)                               : 2 channels
Channel positions                        : Front: L R
Sampling rate                            : 24.0 KHz
Compression mode                         : Lossy
Stream size                              : 62.6 MiB (10%)






http://www26.zippyshare.com/v/88166335/file.html
http://www22.zippyshare.com/v/47655710/file.html
http://www58.zippyshare.com/v/28673588/file.html
http://www46.zippyshare.com/v/8654012/file.html
[/size]
Jack Ryan [BRSCR][Castellano][2014]
0 Puntos Score: 0/10
Visitas: 57456 Favoritos: 0
0 Comentarios Jack Ryan [BRSCR][Castellano][2014]
Este post no tiene comentarios. Sea el primero!
Para dejar un comentario Registrate! o.. eres ya usuario? Accede!