Dios No Esta Muerto [TSHQ][VOSE][2014]




Narra la historia de Josh Wheaton (Shane Harper), un estudiante universitario cuya fe es desafiada por el profesor Radisson (Kevin Sorbo), su maestro de filosofía quien cree que Dios está muerto. Shane toma la decisión de defender su fe y esto ocasiona serios conflictos. La historia se desarrolla alrededor de la vida de varios individuos quienes también son desafiados por un mundo que no cree en la existencia de Dios.



Título Original: God?s Not Dead
Género: Drama
Dirección: Harold Cronk
Guión: Hunter Dennis
Intérpretes: David A.R. White, Kevin Sorbo, Shane Harper,
Origen: USA
Duración: 113 Minutos
Clasificaión: Apta mayores de 13 años
Distribuidora: Mediagroup

General
Format                                   : AVI
Format/Info                              : Audio Video Interleave
File size                                : 999 MiB
Duration                                 : 1h 48mn
Overall bit rate                         : 1 284 Kbps
Writing application                      : Lavf52.84.0

Video
ID                                       : 0
Format                                   : MPEG-4 Visual
Format profile                           : [email protected]
Format settings, BVOP                    : No
Format settings, QPel                    : No
Format settings, GMC                     : No warppoints
Format settings, Matrix                  : Default (H.263)
Codec ID                                 : XVID
Codec ID/Hint                            : XviD
Duration                                 : 1h 48mn
Bit rate                                 : 1 079 Kbps
Width                                    : 720 pixels
Height                                   : 406 pixels
Display aspect ratio                     : 16:9
Frame rate                               : 25.000 fps
Color space                              : YUV
Chroma subsampling                       : 4:2:0
Bit depth                                : 8 bits
Scan type                                : Progressive
Compression mode                         : Lossy
Bits/(Pixel*Frame)                       : 0.148
Stream size                              : 840 MiB (84%)
Writing library                          : Lavc52.97.0

Audio
ID                                       : 1
Format                                   : MPEG Audio
Format version                           : Version 1
Format profile                           : Layer 3
Mode                                     : Joint stereo
Codec ID                                 : 55
Codec ID/Hint                            : MP3
Duration                                 : 1h 48mn
Bit rate mode                            : Constant
Bit rate                                 : 192 Kbps
Channel(s)                               : 2 channels
Sampling rate                            : 48.0 KHz
Compression mode                         : Lossy
Stream size                              : 149 MiB (15%)
Alignment                                : Aligned on interleaves
Interleave, duration                     : 24 ms (0.60 video frame)
Interleave, preload duration             : 24 ms
Writing library                          : LAME3.99.5






http://www11.zippyshare.com/v/61022263/file.html
http://www37.zippyshare.com/v/13585966/file.html
http://www32.zippyshare.com/v/20979609/file.html
http://www63.zippyshare.com/v/9090652/file.html
http://www5.zippyshare.com/v/8646715/file.html
[/size]
Dios No Esta Muerto [TSHQ][VOSE][2014]
25 Puntos Score: 8.3/10
Visitas: 3601 Favoritos: 2
Ver los usuarios que votaron...
9 Comentarios Dios No Esta Muerto [TSHQ][VOSE][2014]
Amigo disculpa la pregunta, pero no la podrias subier en mega??? t lo agradeceria muchisimo man.. si no pues igual gracias. estaba buscando esta peli!!
@hec1891 no hermano pasa que trabajo con este servidor ya que no me da limite de almacenamiento...
ni modo... d todas formas muchas gracias
Cita hec1891: Mostrar
de nada... suerte...
gracias la estaba buscando que Dios te bendiga
Para dejar un comentario Registrate! o.. eres ya usuario? Accede!