The Lunchbox [BRSCR][Castellano][2013]




La película tiene lugar en Mumbai, donde el servicio de correo funciona a gran escala todos los días. Un día se comete un error en la entrega de un paquete. Pero este fallo va a tener una consecuencia agradable: va a suponer el encuentro entre un hombre a punto de jubilarse, Saajan (Irrfan Khan), y una infeliz ama de casa, Ila (Nimrat Kaur). Ambos, mediante el correo diario comienzan a mandarse notas y, así, empieza entre ellos una bonita relación, llena de fantasías, con la que los dos intentan escaparse de la realidad que les está tocando padecer.



Título: The Lunchbox
Título original: Dabba
País: Francia, India, Alemania
Año: 2013
Fecha de estreno: 30/04/2014
Duración: 104 min
Género: Drama, Romance
Reparto: Irrfan Khan, Nawazuddin Siddiqui, Lillete Dubey
Distribuidora: Vertigo Films
Productora: UTV Motion Pictures

General
Format                                   : MPEG-4
Format profile                           : Base Media
Codec ID                                 : isom
File size                                : 613 MiB
Duration                                 : 1h 40mn
Overall bit rate mode                    : Variable
Overall bit rate                         : 851 Kbps
Writing application                      : Lavf54.63.104

Video
ID                                       : 1
Format                                   : AVC
Format/Info                              : Advanced Video Codec
Format profile                           : [email protected]
Format settings, CABAC                   : Yes
Format settings, ReFrames                : 4 frames
Codec ID                                 : avc1
Codec ID/Info                            : Advanced Video Coding
Duration                                 : 1h 40mn
Bit rate                                 : 750 Kbps
Width                                    : 720 pixels
Height                                   : 304 pixels
Display aspect ratio                     : 2.35:1
Frame rate mode                          : Constant
Frame rate                               : 25.000 fps
Color space                              : YUV
Chroma subsampling                       : 4:2:0
Bit depth                                : 8 bits
Scan type                                : Progressive
Bits/(Pixel*Frame)                       : 0.137
Stream size                              : 550 MiB (90%)
Writing library                          : x264 core 120 r2151 a3f4407
Encoding settings                        : cabac=1 / ref=3 / deblock=1:0:0 / analyse=0x3:0x113 / me=hex / subme=7 / psy=1 / psy_rd=1.00:0.00 / mixed_ref=1 / me_range=16 / chroma_me=1 / trellis=1 / 8x8dct=1 / cqm=0 / deadzone=21,11 / fast_pskip=1 / chroma_qp_offset=-2 / threads=16 / sliced_threads=0 / nr=0 / decimate=1 / interlaced=0 / bluray_compat=0 / constrained_intra=0 / bframes=3 / b_pyramid=2 / b_adapt=1 / b_bias=0 / direct=1 / weightb=1 / open_gop=0 / weightp=2 / keyint=25 / keyint_min=2 / scenecut=40 / intra_refresh=0 / rc_lookahead=25 / rc=abr / mbtree=1 / bitrate=750 / ratetol=1.0 / qcomp=0.60 / qpmin=0 / qpmax=69 / qpstep=4 / ip_ratio=1.40 / aq=1:1.00

Audio
ID                                       : 2
Format                                   : AAC
Format/Info                              : Advanced Audio Codec
Format profile                           : LC
Codec ID                                 : 40
Duration                                 : 1h 40mn
Duration_LastFrame                       : -16ms
Bit rate mode                            : Variable
Bit rate                                 : 82.7 Kbps
Maximum bit rate                         : 128 Kbps
Channel(s)                               : 2 channels
Channel positions                        : Front: L R
Sampling rate                            : 24.0 KHz
Compression mode                         : Lossy
Stream size                              : 59.6 MiB (10%)






http://www22.zippyshare.com/v/54376682/file.html
http://www43.zippyshare.com/v/89536442/file.html
http://www44.zippyshare.com/v/14125439/file.html
http://www36.zippyshare.com/v/16282344/file.html
The Lunchbox [BRSCR][Castellano][2013]
10 Puntos Score: 10/10
Visitas: 583 Favoritos: 1
Ver los usuarios que votaron...
0 Comentarios The Lunchbox [BRSCR][Castellano][2013]
Este post no tiene comentarios. Sea el primero!
Para dejar un comentario Registrate! o.. eres ya usuario? Accede!