Vampire Academy [BRSCR][Latino][2014]




Rose Hathaway (Zoey Deutch) es una criatura que es mitad vampiro, mitad humana. Sigue un entrenamiento en la Academia de San Vladímir con el objetivo de convertirse en guardiana. En su mundo hay vampiros buenos y malos: Moroi, por ejemplo, cohabita pacíficamente junto a los humanos y posee el control de los elementos de agua, tierra, aire y fuego. En cambio, Strigoi es un adicto a la sangre que sólo piensa en matar a gente inocente. Tras verse envuelta en la muerte de Strigoi, Rose tendrá que proteger a la princesa Dragomir (Lucy Fry) y escapar a toda velocidad de la Academia.



Título: Vampire Academy
Título original: Vampire Academy
Dirección: Mark Waters
País: El Reino Unido, Estados Unidos
Año: 2014
Fecha de estreno: 09/05/2014
Duración: 104 min
Género: Comedia, Acción, Fantástico
Calificación: No recomendada para menores de 13 años
Reparto: Sarah Hyland, Olga Kurylenko, Joely Richardson, Claire Foy, Cameron Monaghan, Gabriel Byrne, Lucy Fry, Sami Gayle
Web: Vampire Academy
Distribuidora: eOne Films
Productora: Kintop Pictures, Angry Films, Preger Entertainment

General
Format                                   : Matroska
Format version                           : Version 4 / Version 2
File size                                : 832 MiB
Duration                                 : 1h 44mn
Overall bit rate                         : 1 115 Kbps
Encoded date                             : UTC 2014-05-02 05:01:10
Writing application                      : mkvmerge v6.9.1 ('Blue Panther') 64bit built on Apr 18 2014 18:23:38
Writing library                          : libebml v1.3.0 + libmatroska v1.4.1

Video
ID                                       : 1
Format                                   : AVC
Format/Info                              : Advanced Video Codec
Format profile                           : [email protected]
Format settings, CABAC                   : Yes
Format settings, ReFrames                : 4 frames
Codec ID                                 : V_MPEG4/ISO/AVC
Duration                                 : 1h 44mn
Bit rate                                 : 985 Kbps
Width                                    : 1 280 pixels
Height                                   : 536 pixels
Display aspect ratio                     : 2.40:1
Frame rate                               : 23.976 fps
Color space                              : YUV
Chroma subsampling                       : 4:2:0
Bit depth                                : 8 bits
Scan type                                : Progressive
Bits/(Pixel*Frame)                       : 0.060
Stream size                              : 720 MiB (87%)
Writing library                          : x264 core 142 r2409 d6b4e63
Encoding settings                        : cabac=1 / ref=4 / deblock=1:-1:-1 / analyse=0x3:0x133 / me=umh / subme=9 / psy=1 / psy_rd=1.00:0.15 / mixed_ref=1 / me_range=24 / chroma_me=1 / trellis=2 / 8x8dct=1 / cqm=0 / deadzone=21,11 / fast_pskip=0 / chroma_qp_offset=-3 / threads=48 / lookahead_threads=4 / sliced_threads=0 / nr=0 / decimate=1 / interlaced=0 / bluray_compat=0 / constrained_intra=0 / bframes=3 / b_pyramid=2 / b_adapt=2 / b_bias=0 / direct=3 / weightb=1 / open_gop=0 / weightp=2 / keyint=250 / keyint_min=23 / scenecut=40 / intra_refresh=0 / rc_lookahead=60 / rc=2pass / mbtree=1 / bitrate=985 / ratetol=1.0 / qcomp=0.60 / qpmin=0 / qpmax=69 / qpstep=4 / cplxblur=20.0 / qblur=0.5 / vbv_maxrate=31250 / vbv_bufsize=31250 / nal_hrd=none / filler=0 / ip_ratio=1.40 / aq=1:1.00
Default                                  : Yes
Forced                                   : No
Color primaries                          : BT.709-5, BT.1361, IEC 61966-2-4, SMPTE RP177
Matrix coefficients                      : BT.709-5, BT.1361, IEC 61966-2-4 709, SMPTE RP177

Audio
ID                                       : 2
Format                                   : MPEG Audio
Format version                           : Version 1
Format profile                           : Layer 3
Mode                                     : Joint stereo
Mode extension                           : MS Stereo
Codec ID                                 : A_MPEG/L3
Codec ID/Hint                            : MP3
Duration                                 : 1h 44mn
Bit rate mode                            : Constant
Bit rate                                 : 128 Kbps
Channel(s)                               : 2 channels
Sampling rate                            : 48.0 KHz
Compression mode                         : Lossy
Stream size                              : 95.6 MiB (11%)
Title                                    : LATINO
Writing library                          : LAME3.98.4
Language                                 : Spanish
Default                                  : Yes
Forced                                   : No






http://www53.zippyshare.com/v/65647306/file.html
http://www68.zippyshare.com/v/45755539/file.html
http://www18.zippyshare.com/v/8099736/file.html
http://www28.zippyshare.com/v/92391927/file.html
http://www75.zippyshare.com/v/20434337/file.html
Vampire Academy [BRSCR][Latino][2014]
10 Puntos Score: 10/10
Visitas: 1734 Favoritos: 0
Ver los usuarios que votaron...
0 Comentarios Vampire Academy [BRSCR][Latino][2014]
Este post no tiene comentarios. Sea el primero!
Para dejar un comentario Registrate! o.. eres ya usuario? Accede!