Lego La Pelicula [WEBRip][VOSE][2014]




Película basada en los clásicos juguetes LEGO. Emmet (Chris Pratt), el protagonista de la película, trabaja como constructor en la ciudad Lego, pero sus conocimientos no van más allá de colocar las fichas atendiendo las instrucciones de edificación. Sin embargo, sin saber cómo ni por qué, Emmet es confundido con un 'Master Builder' e introducido como cabecilla de una misión que tiene por objetivo evitar que un malvado acabe con la ciudad de bloques. Por suerte, los habitantes de tan atípico lugar no están solos. Los mismísimos Superman y Batman han tomado la forma de muñecos Lego para formar parte de esta gran aventura.



Título: Lego: la película
Título original: The LEGO Movie
Dirección: Phil Lord, Chris Miller
País: Estados Unidos
Año: 2014
Fecha de estreno: 07/02/2014
Duración: 90 min
Género: Comedia, Animación, Acción
Calificación: Apta para todos los públicos
Reparto: Elizabeth Banks, Channing Tatum, Morgan Freeman, Chris Pratt, Will Arnett, Jonah Hill, Will Ferrell, Cobie Smulders, Liam Neeson, Alison Brie
Web: www.warnerbros.es/cine/animacion/la-lego-pelicula
Distribuidora: Warner Bros. Pictures
Productora: Animal Logic, LEGO

General
Format                                   : AVI
Format/Info                              : Audio Video Interleave
File size                                : 849 MiB
Duration                                 : 1h 40mn
Overall bit rate                         : 1 181 Kbps
Writing application                      : Lavf52.84.0

Video
ID                                       : 0
Format                                   : MPEG-4 Visual
Format profile                           : [email protected]
Format settings, BVOP                    : No
Format settings, QPel                    : No
Format settings, GMC                     : No warppoints
Format settings, Matrix                  : Default (H.263)
Codec ID                                 : XVID
Codec ID/Hint                            : XviD
Duration                                 : 1h 40mn
Bit rate                                 : 1 042 Kbps
Width                                    : 640 pixels
Height                                   : 272 pixels
Display aspect ratio                     : 2.35:1
Frame rate                               : 23.976 fps
Color space                              : YUV
Chroma subsampling                       : 4:2:0
Bit depth                                : 8 bits
Scan type                                : Progressive
Compression mode                         : Lossy
Bits/(Pixel*Frame)                       : 0.250
Stream size                              : 748 MiB (88%)
Writing library                          : Lavc52.97.0

Audio
ID                                       : 1
Format                                   : MPEG Audio
Format version                           : Version 1
Format profile                           : Layer 3
Mode                                     : Joint stereo
Mode extension                           : MS Stereo
Codec ID                                 : 55
Codec ID/Hint                            : MP3
Duration                                 : 1h 40mn
Bit rate mode                            : Constant
Bit rate                                 : 128 Kbps
Channel(s)                               : 2 channels
Sampling rate                            : 48.0 KHz
Compression mode                         : Lossy
Stream size                              : 92.0 MiB (11%)
Alignment                                : Aligned on interleaves
Interleave, duration                     : 24 ms (0.57 video frame)
Interleave, preload duration             : 24 ms
Writing library                          : LAME3.99r
Encoding settings                        : -m j -V 4 -q 2 -lowpass 17 -b 128






http://www4.zippyshare.com/v/13338493/file.html
http://www69.zippyshare.com/v/122489/file.html
http://www62.zippyshare.com/v/85525762/file.html
http://www31.zippyshare.com/v/9479228/file.html
http://www4.zippyshare.com/v/25923247/file.html
[/size]
Lego La Pelicula [WEBRip][VOSE][2014]
0 Puntos Score: 0/10
Visitas: 2401 Favoritos: 1
5 Comentarios Lego La Pelicula [WEBRip][VOSE][2014]
oye tiene pass? gracias por el aporte
Cita m4rckk05: Mostrar
no tiene, mis aportes vienen sin pass
oye ya la baje dos veces y descomprimi en dos equipos diferentes, pero el audio se desfasa...
@m4rckk05 es por el tipo de pelicula ya que no es el final...
mmm. ok, gracias.. ya consegui una mejor.. buena suerte ne proximos post
Para dejar un comentario Registrate! o.. eres ya usuario? Accede!