That Awkward Noment [HDRip 720p][VOSE][2014]




Jason, Daniel y Mikey (Zac Efron, Miles Teller y Michael B. Jordan) son tres amigos que desde que se conocen siempre han estado muy unidos. Ahora, los tres deben volver a reunirse para hacer terapia colectiva. Y es que sus respectivas relaciones de pareja están pasando por momentos verdaderamente complicados. La crisis de los 30, la falta de sexo, los problemas económicos y la pérdida de la pasión amorosa saldrán a la luz en esta comedia escrita y dirigida por el debutante Tom Gormican.



Título: That Awkward Moment
Título original: That Awkward Moment
Dirección: Tom Gormican
País: Estados Unidos
Año: 2014
Fecha de estreno: Próximamente
Duración: 94 min
Género: Romance, Comedia
Calificación: No recomendada para menores de 16 años
Reparto: Zac Efron, Imogen Poots, Miles Teller, Addison Timlin, Jessica Lucas, Michael B. Jordan, Emily Meade, Alysia Reiner, Josh Pais, Tina Benko
Web: www.thatawkwardmomentmovie.com
Distribuidora: Focus Features
Productora: Virgin Produced, Treehouse Pictures

General
Format                                   : MPEG-4
Format profile                           : Base Media / Version 2
Codec ID                                 : mp42
File size                                : 983 MiB
Duration                                 : 1h 34mn
Overall bit rate mode                    : Variable
Overall bit rate                         : 1 454 Kbps
Album                                    : That.Awkward.Noment.2014.720P.VOSE
Encoded date                             : UTC 2014-05-04 22:45:41
Tagged date                              : UTC 2014-05-04 23:04:24
Writing application                      : DVDFab

Video
ID                                       : 1
Format                                   : AVC
Format/Info                              : Advanced Video Codec
Format profile                           : [email protected]
Format settings, CABAC                   : Yes
Format settings, ReFrames                : 1 frame
Codec ID                                 : avc1
Codec ID/Info                            : Advanced Video Coding
Duration                                 : 1h 34mn
Bit rate mode                            : Variable
Bit rate                                 : 1 322 Kbps
Width                                    : 1 280 pixels
Height                                   : 544 pixels
Display aspect ratio                     : 2.35:1
Frame rate mode                          : Variable
Frame rate                               : 23.976 fps
Minimum frame rate                       : 23.974 fps
Maximum frame rate                       : 23.981 fps
Color space                              : YUV
Chroma subsampling                       : 4:2:0
Bit depth                                : 8 bits
Scan type                                : Progressive
Bits/(Pixel*Frame)                       : 0.079
Stream size                              : 894 MiB (91%)
Writing library                          : x264 core
Encoded date                             : UTC 2014-05-04 22:45:41
Tagged date                              : UTC 2014-05-04 23:04:20
Color primaries                          : BT.709-5, BT.1361, IEC 61966-2-4, SMPTE RP177
Transfer characteristics                 : BT.709-5, BT.1361
Matrix coefficients                      : BT.709-5, BT.1361, IEC 61966-2-4 709, SMPTE RP177

Audio
ID                                       : 2
Format                                   : AAC
Format/Info                              : Advanced Audio Codec
Format profile                           : LC
Codec ID                                 : 40
Duration                                 : 1h 34mn
Bit rate mode                            : Variable
Bit rate                                 : 128 Kbps
Maximum bit rate                         : 205 Kbps
Channel(s)                               : 2 channels
Channel positions                        : Front: L R
Sampling rate                            : 48.0 KHz
Compression mode                         : Lossy
Stream size                              : 86.4 MiB (9%)
Language                                 : English
Encoded date                             : UTC 2014-05-04 22:45:41
Tagged date                              : UTC 2014-05-04 23:04:11

Text
ID                                       : 3
Format                                   : Apple text
Codec ID                                 : text
Duration                                 : 1h 34mn
Bit rate mode                            : Variable
Bit rate                                 : 1 bps
Stream size                              : 375 Bytes (0%)
Encoded date                             : UTC 2014-05-04 22:45:41
Tagged date                              : UTC 2014-05-04 23:04:24






http://www22.zippyshare.com/v/72708206/file.html
http://www48.zippyshare.com/v/28479537/file.html
http://www50.zippyshare.com/v/72731594/file.html
http://www20.zippyshare.com/v/16427576/file.html
http://www22.zippyshare.com/v/82737045/file.html
[/size]
That Awkward Noment [HDRip 720p][VOSE][2014]
0 Puntos Score: 0/10
Visitas: 1119 Favoritos: 0
0 Comentarios That Awkward Noment [HDRip 720p][VOSE][2014]
Este post no tiene comentarios. Sea el primero!
Para dejar un comentario Registrate! o.. eres ya usuario? Accede!