Endless Love [BRSCR][VOSE][2014]




Se trata de un drama romántico centrado en una pareja de adolescentes formada por David de 17 años, y Jade, de 15, que se aman profunda pero castamente con el beneplácito de sus padres. Pero cuando el progenitor de la chica los descubre haciendo el amor y decide cortar esa relación, provocará una reacción inesperada



Titulo Original: Endless Love
Titulo Latino: Endless Love (Amor eterno)
Actores: Alex Pettyfer, Gabriella Wilde, Bruce Greenwood, Joely Richardson
Año: 2014
Duración: 104 min.
País: USA
Género: Drama, Romance

General
Format                                   : MPEG-4
Format profile                           : Base Media / Version 2
Codec ID                                 : mp42
File size                                : 980 MiB
Duration                                 : 1h 44mn
Overall bit rate mode                    : Variable
Overall bit rate                         : 1 310 Kbps
Encoded date                             : UTC 2014-05-04 18:20:09
Tagged date                              : UTC 2014-05-04 18:43:46
Writing application                      : DVDFab

Video
ID                                       : 1
Format                                   : AVC
Format/Info                              : Advanced Video Codec
Format profile                           : [email protected]
Format settings, CABAC                   : Yes
Format settings, ReFrames                : 1 frame
Codec ID                                 : avc1
Codec ID/Info                            : Advanced Video Coding
Duration                                 : 1h 44mn
Bit rate mode                            : Variable
Bit rate                                 : 1 177 Kbps
Width                                    : 1 264 pixels
Height                                   : 528 pixels
Display aspect ratio                     : 2.40:1
Frame rate mode                          : Variable
Frame rate                               : 23.976 fps
Minimum frame rate                       : 23.974 fps
Maximum frame rate                       : 23.981 fps
Color space                              : YUV
Chroma subsampling                       : 4:2:0
Bit depth                                : 8 bits
Scan type                                : Progressive
Bits/(Pixel*Frame)                       : 0.074
Stream size                              : 881 MiB (90%)
Writing library                          : x264 core
Encoded date                             : UTC 2014-05-04 18:20:09
Tagged date                              : UTC 2014-05-04 18:43:42
Color primaries                          : BT.601-6 525, BT.1358 525, BT.1700 NTSC, SMPTE 170M
Transfer characteristics                 : BT.709-5, BT.1361
Matrix coefficients                      : BT.601-6 525, BT.1358 525, BT.1700 NTSC, SMPTE 170M

Audio
ID                                       : 2
Format                                   : AAC
Format/Info                              : Advanced Audio Codec
Format profile                           : LC
Codec ID                                 : 40
Duration                                 : 1h 44mn
Bit rate mode                            : Variable
Bit rate                                 : 128 Kbps
Maximum bit rate                         : 164 Kbps
Channel(s)                               : 2 channels
Channel positions                        : Front: L R
Sampling rate                            : 48.0 KHz
Compression mode                         : Lossy
Stream size                              : 95.7 MiB (10%)
Encoded date                             : UTC 2014-05-04 18:20:09
Tagged date                              : UTC 2014-05-04 18:42:36






http://www45.zippyshare.com/v/35009479/file.html
http://www62.zippyshare.com/v/19038340/file.html
http://www9.zippyshare.com/v/72707473/file.html
http://www75.zippyshare.com/v/54201413/file.html
http://www7.zippyshare.com/v/88311067/file.html
Endless Love [BRSCR][VOSE][2014]
5 Puntos Score: 5/10
Visitas: 1513 Favoritos: 1
Ver los usuarios que votaron...
1 Comentarios Endless Love [BRSCR][VOSE][2014]
Para dejar un comentario Registrate! o.. eres ya usuario? Accede!