La Fortaleza [CAM][VOSE][2014]




En un Detroit distópico, los antiguos bloques de ladrillo ahora dan cobijo a algunos de los delincuentes más peligrosos de la ciudad. En un intento desesperado por proteger el resto de la ciudad, la policía construye, alrededor de esos edificios, un muro de contención. Mientras el agente secreto Damien Collier (Paul Walker) libra, día tras día, una dura batalla contra la corrupción, Lino (David Belle), un ex convicto lucha por llevar una vida honesta.
Sus caminos nunca deberían haberse cruzado, pero cuando el capo de la droga, Tremaine (RZA) secuestra a la novia de Lino, Damien se ve obligado a aceptar su ayuda para intentar detener una siniestra trama que pretende acabar con toda la ciudad.



Título: Brick Mansions (La fortaleza)
Título original: Brick Mansions
Dirección: Camille Delamarre
País: Francia, Canadá
Año: 2014
Fecha de estreno: 25/04/2014
Duración: 90 min
Género: Criminal, Drama, Acción
Reparto: Paul Walker, David Belle, RZA, Robert Maillet, Carlo Rota, Bruce Ramsay, Catalina Denis, Ayisha Issa
Distribuidora: Avalon Productions
Productora: EuropaCorp

General
Format                                   : AVI
Format/Info                              : Audio Video Interleave
Format profile                           : OpenDML
File size                                : 1.20 GiB
Duration                                 : 1h 10mn
Overall bit rate                         : 2 420 Kbps
Movie name                               : Brick Mansions.Title1.DVDRip
Writing application                      : Lavf52.78.4
Original source form/Name                : Brick Mansions

Video
ID                                       : 0
Format                                   : MPEG-4 Visual
Format profile                           : Advanced [email protected]
Format settings, BVOP                    : 2
Format settings, QPel                    : No
Format settings, GMC                     : No warppoints
Format settings, Matrix                  : Default (H.263)
Muxing mode                              : Packed bitstream
Codec ID                                 : DX50
Codec ID/Hint                            : DivX 5
Duration                                 : 1h 10mn
Source duration                          : 1h 10mn
Bit rate                                 : 1 629 Kbps
Width                                    : 720 pixels
Height                                   : 378 pixels
Display aspect ratio                     : 1.905
Frame rate                               : 29.970 fps
Color space                              : YUV
Chroma subsampling                       : 4:2:0
Bit depth                                : 8 bits
Scan type                                : Progressive
Compression mode                         : Lossy
Bits/(Pixel*Frame)                       : 0.200
Stream size                              : 827 MiB (67%)
Writing library                          : XviD 1.2.1 (UTC 2008-12-04)

Audio
ID                                       : 1
Format                                   : AC-3
Format/Info                              : Audio Coding 3
Mode extension                           : CM (complete main)
Format settings, Endianness              : Big
Codec ID                                 : 2000
Duration                                 : 1h 10mn
Source duration                          : 1h 10mn
Bit rate mode                            : Constant
Bit rate                                 : 384 Kbps
Channel(s)                               : 6 channels
Channel positions                        : Front: L C R, Side: L R, LFE
Sampling rate                            : 48.0 KHz
Bit depth                                : 16 bits
Compression mode                         : Lossy
Stream size                              : 195 MiB (16%)
Alignment                                : Aligned on interleaves
Interleave, duration                     : 32 ms (0.96 video frame)
Interleave, preload duration             : 32 ms






http://www8.zippyshare.com/v/83512730/file.html
http://www40.zippyshare.com/v/77953591/file.html
http://www22.zippyshare.com/v/32717326/file.html
http://www63.zippyshare.com/v/3205536/file.html
http://www76.zippyshare.com/v/2604383/file.html
http://www56.zippyshare.com/v/5404476/file.html
http://www34.zippyshare.com/v/86404044/file.html
La Fortaleza [CAM][VOSE][2014]
0 Puntos Score: 0/10
Visitas: 1664 Favoritos: 0
3 Comentarios La Fortaleza [CAM][VOSE][2014]
ahh cabron pues cuando grabaron esta pelicula? seguro que es del 2014?? que alguien me explique!!
Cita hormigababy: Mostrar
hay peliculas que son grabadas desde 2 a?
link caidos :-(
Para dejar un comentario Registrate! o.. eres ya usuario? Accede!