The Third Half [DVDRip][VOSE][2012]




Esta es la historia de un grupo de personas unidas por lo más importante del mundo: el fútbol, en la época más turbulenta de la historia: la II Guerra Mundial. Es la historia de los jugadores del FC Macedonia y su entrenador Rudolph Spitz, un alemán judío, quien los lidera en la liga de fútbol búlgara controlada por los nazis. Es la historia del fundador del club, Dimitry, quien debe elegir entre su amor por su equipo y su lealtad al Nuevo Orden. Es la historia de su delantero, Kosta, un contrabandista que se enamora de una jovencita rica. Es la historia de Rebecca, una princesa judía, quien se fuga con su futbolista viviendo en su vestuario, eludiendo así el amargo destino de su pueblo. Y sobre todo es una historia de fútbol, un juego que en aquellos horribles días, fue algo más que un deporte; fue un campo de batalla entre el bien y el mal.



Titulo: The Third Half
Genero : DramaRomanceGuerraHistoricaDeporte
Directores : Darko Mitrevski
Escritores : Darko MitrevskiGrgur Strujic
Reparto : Katarina IvanovskaSasko KocevRichard SammelRade SerbedzijaEmil RubenMitko ApostolovskiVerica NedeskaIgor AngelovToni MihajlovskiGorast CvetkovskiOliver MitkovskiIvica DimitrijevicAksel MehmetDimitrija DoksevskiMilan Tocinovski

General
Format                                   : AVI
Format/Info                              : Audio Video Interleave
File size                                : 909 MiB
Duration                                 : 1h 48mn
Overall bit rate                         : 1 171 Kbps
Writing application                      : Lavf52.84.0

Video
ID                                       : 0
Format                                   : MPEG-4 Visual
Format profile                           : [email protected]
Format settings, BVOP                    : No
Format settings, QPel                    : No
Format settings, GMC                     : No warppoints
Format settings, Matrix                  : Default (H.263)
Codec ID                                 : XVID
Codec ID/Hint                            : XviD
Duration                                 : 1h 48mn
Bit rate                                 : 1 030 Kbps
Width                                    : 720 pixels
Height                                   : 304 pixels
Display aspect ratio                     : 2.35:1
Frame rate                               : 25.000 fps
Color space                              : YUV
Chroma subsampling                       : 4:2:0
Bit depth                                : 8 bits
Scan type                                : Progressive
Compression mode                         : Lossy
Bits/(Pixel*Frame)                       : 0.188
Stream size                              : 799 MiB (88%)
Writing library                          : Lavc52.97.0

Audio
ID                                       : 1
Format                                   : MPEG Audio
Format version                           : Version 1
Format profile                           : Layer 3
Mode                                     : Joint stereo
Mode extension                           : MS Stereo
Codec ID                                 : 55
Codec ID/Hint                            : MP3
Duration                                 : 1h 48mn
Bit rate mode                            : Constant
Bit rate                                 : 128 Kbps
Channel(s)                               : 2 channels
Sampling rate                            : 48.0 KHz
Compression mode                         : Lossy
Stream size                              : 99.4 MiB (11%)
Alignment                                : Aligned on interleaves
Interleave, duration                     : 24 ms (0.60 video frame)
Writing library                          : LAME3.98.4






http://www75.zippyshare.com/v/24333260/file.html
http://www47.zippyshare.com/v/38030390/file.html
http://www41.zippyshare.com/v/58601637/file.html
http://www56.zippyshare.com/v/26203182/file.html
http://www1.zippyshare.com/v/16611308/file.html
The Third Half [DVDRip][VOSE][2012]
5 Puntos Score: 5/10
Visitas: 246 Favoritos: 1
Ver los usuarios que votaron...
0 Comentarios The Third Half [DVDRip][VOSE][2012]
Este post no tiene comentarios. Sea el primero!
Para dejar un comentario Registrate! o.. eres ya usuario? Accede!