The Little Rascals [HDRip 720p][Latino][2014]




Esta son las travesuras de Spanky y sus amigos Alfalfa, Darla, Buckwheat, Petey el perro y los demás!. Los Rascals tratan de reunir por todos los medios el dinero necesario para mantener abierta la panadería de su abuela. Pero, el problema es que parece que no saben hacer nada bien! No logran ganar un centavo ni lavando mascotas ni con su terrible servicio de taxi. Su única esperanza es ganar el premio del concurso de talentos locales, pero ¿han oído cantar a Alfalfa?



Titulo Original: The Little Rascals Save the Day
Otros Titulos: Pequeños Traviesos Al Rescate
Director: Alex Zamm
Reparto: Valerie Azlynn, Doris Roberts, Mindy Sterling
Año: 2014
Duración: 93 min.
País: Estados Unidos
Género: Infantil. Comedia | Cine familiar

General
Format                                   : Matroska
Format version                           : Version 2
File size                                : 970 MiB
Duration                                 : 1h 37mn
Overall bit rate                         : 1 386 Kbps
Encoded date                             : UTC 2014-03-31 06:20:13
Writing application                      : mkvmerge v3.4.0 ('Rapunzel') built on May 15 2010 09:38:20
Writing library                          : libebml v0.8.0 + libmatroska v0.9.0

Video
ID                                       : 1
Format                                   : AVC
Format/Info                              : Advanced Video Codec
Format profile                           : [email protected]
Format settings, CABAC                   : Yes
Format settings, ReFrames                : 6 frames
Codec ID                                 : V_MPEG4/ISO/AVC
Duration                                 : 1h 37mn
Bit rate                                 : 1 000 Kbps
Width                                    : 1 280 pixels
Height                                   : 720 pixels
Display aspect ratio                     : 16:9
Frame rate                               : 23.976 fps
Color space                              : YUV
Chroma subsampling                       : 4:2:0
Bit depth                                : 8 bits
Scan type                                : Progressive
Bits/(Pixel*Frame)                       : 0.045
Stream size                              : 682 MiB (70%)
Writing library                          : x264 core 138 r2358 9e941d1
Encoding settings                        : cabac=1 / ref=6 / deblock=1:1:1 / analyse=0x3:0x113 / me=hex / subme=7 / psy=1 / psy_rd=0.40:0.00 / mixed_ref=1 / me_range=16 / chroma_me=1 / trellis=1 / 8x8dct=1 / cqm=0 / deadzone=21,11 / fast_pskip=1 / chroma_qp_offset=-2 / threads=18 / lookahead_threads=3 / sliced_threads=0 / nr=0 / decimate=1 / interlaced=0 / bluray_compat=0 / constrained_intra=0 / bframes=4 / b_pyramid=2 / b_adapt=1 / b_bias=0 / direct=1 / weightb=0 / open_gop=0 / weightp=2 / keyint=250 / keyint_min=23 / scenecut=40 / intra_refresh=0 / rc_lookahead=40 / rc=2pass / mbtree=1 / bitrate=1000 / ratetol=1.0 / qcomp=0.60 / qpmin=0 / qpmax=69 / qpstep=4 / cplxblur=20.0 / qblur=0.5 / ip_ratio=1.40 / aq=1:0.60
Language                                 : Spanish
Default                                  : No
Forced                                   : No

Audio
ID                                       : 2
Format                                   : AC-3
Format/Info                              : Audio Coding 3
Mode extension                           : CM (complete main)
Format settings, Endianness              : Big
Codec ID                                 : A_AC3
Duration                                 : 1h 37mn
Bit rate mode                            : Constant
Bit rate                                 : 384 Kbps
Channel(s)                               : 6 channels
Channel positions                        : Front: L C R, Side: L R, LFE
Sampling rate                            : 48.0 KHz
Bit depth                                : 16 bits
Compression mode                         : Lossy
Stream size                              : 269 MiB (28%)
Language                                 : Spanish
Default                                  : Yes
Forced                                   : No

Text
ID                                       : 3
Format                                   : UTF-8
Codec ID                                 : S_TEXT/UTF8
Codec ID/Info                            : UTF-8 Plain Text
Language                                 : Spanish
Default                                  : Yes
Forced                                   : No






http://www28.zippyshare.com/v/16967016/file.html
http://www61.zippyshare.com/v/64123266/file.html
http://www16.zippyshare.com/v/52012879/file.html
http://www25.zippyshare.com/v/7636351/file.html
http://www8.zippyshare.com/v/52366133/file.html
The Little Rascals [HDRip 720p][Latino][2014]
0 Puntos Score: 0/10
Visitas: 1889 Favoritos: 0
1 Comentarios The Little Rascals [HDRip 720p][Latino][2014]
Gracias por compartir.  Lastima que tenga el idioma original -- es la mitad de la actuacion.
Para dejar un comentario Registrate! o.. eres ya usuario? Accede!