La Ley [DVDSCR][Latino][2013]




Pedro está a punto de ser nombrado magistrado de la suprema corte española, pero una llamada le anuncia la muerte de su abuela en Venezuela y su consecuente herencia. Esta noticia lo obliga a ?tomar maletas?, sin imaginar que este país cambiará su forma de ver la vida, la justicia y el amor.



Título: La ley
Genero : Comedias
Directores : Pablo de la Barra
Escritores : Henry Herrera
Reparto : Mayra AfricanoMario Enrique Kike Orefice AgueroAlejandro CoronaLucas FuicaPaco GinotArmando GotaNacho HuettYugui LópezVanessa MendozaJulio César MármolIgnacio MárquezzRolando PadillaDavid SerranoJavier VidalSandra Villanueva

General
Format                                   : MPEG-4
Format profile                           : Base Media
Codec ID                                 : isom
File size                                : 626 MiB
Duration                                 : 1h 44mn
Overall bit rate mode                    : Variable
Overall bit rate                         : 837 Kbps
Writing application                      : Lavf54.63.104

Video
ID                                       : 1
Format                                   : AVC
Format/Info                              : Advanced Video Codec
Format profile                           : [email protected]
Format settings, CABAC                   : Yes
Format settings, ReFrames                : 4 frames
Codec ID                                 : avc1
Codec ID/Info                            : Advanced Video Coding
Duration                                 : 1h 44mn
Source duration                          : 9mn 9s
Bit rate                                 : 750 Kbps
Width                                    : 720 pixels
Height                                   : 400 pixels
Display aspect ratio                     : 16:9
Frame rate mode                          : Constant
Frame rate                               : 23.976 fps
Color space                              : YUV
Chroma subsampling                       : 4:2:0
Bit depth                                : 8 bits
Scan type                                : Progressive
Bits/(Pixel*Frame)                       : 0.109
Stream size                              : 561 MiB (90%)
Source stream size                       : 561 MiB (90%)
Writing library                          : x264 core 120 r2151 a3f4407
Encoding settings                        : cabac=1 / ref=3 / deblock=1:0:0 / analyse=0x3:0x113 / me=hex / subme=7 / psy=1 / psy_rd=1.00:0.00 / mixed_ref=1 / me_range=16 / chroma_me=1 / trellis=1 / 8x8dct=1 / cqm=0 / deadzone=21,11 / fast_pskip=1 / chroma_qp_offset=-2 / threads=16 / sliced_threads=0 / nr=0 / decimate=1 / interlaced=0 / bluray_compat=0 / constrained_intra=0 / bframes=3 / b_pyramid=2 / b_adapt=1 / b_bias=0 / direct=1 / weightb=1 / open_gop=0 / weightp=2 / keyint=25 / keyint_min=2 / scenecut=40 / intra_refresh=0 / rc_lookahead=25 / rc=abr / mbtree=1 / bitrate=750 / ratetol=1.0 / qcomp=0.60 / qpmin=0 / qpmax=69 / qpstep=4 / ip_ratio=1.40 / aq=1:1.00
mdhd_Duration                            : 6276062

Audio
ID                                       : 2
Format                                   : AAC
Format/Info                              : Advanced Audio Codec
Format profile                           : LC
Codec ID                                 : 40
Duration                                 : 1h 44mn
Bit rate mode                            : Variable
Bit rate                                 : 82.7 Kbps
Maximum bit rate                         : 128 Kbps
Channel(s)                               : 2 channels
Channel positions                        : Front: L R
Sampling rate                            : 24.0 KHz
Compression mode                         : Lossy
Stream size                              : 61.9 MiB (10%)






http://www32.zippyshare.com/v/32381870/file.html
http://www50.zippyshare.com/v/76841791/file.html
http://www11.zippyshare.com/v/40577452/file.html
http://www50.zippyshare.com/v/32656106/file.html
La Ley [DVDSCR][Latino][2013]
3 Puntos Score: 3/10
Visitas: 1316 Favoritos: 0
Ver los usuarios que votaron...
0 Comentarios La Ley [DVDSCR][Latino][2013]
Este post no tiene comentarios. Sea el primero!
Para dejar un comentario Registrate! o.. eres ya usuario? Accede!