Bhaag Milkha Bhaag [DVDRip][VOSE][2013]




Historia real del deportista Milkha Singh, que superó la masacre de su familia y una etapa viviendo en la calle para convertirse en uno de los atletas más icónicos de India.



Título: Bhaag Milkha Bhaag
Título original: Bhaag Milkha Bhaag
Año: 2013
Duración: 188 minutos
País: India
Género: Biografía, Drama, Historia

General
Format                                   : AVI
Format/Info                              : Audio Video Interleave
File size                                : 849 MiB
Duration                                 : 3h 6mn
Overall bit rate                         : 637 Kbps
Writing application                      : Lavf52.84.0

Video
ID                                       : 0
Format                                   : MPEG-4 Visual
Format profile                           : [email protected]
Format settings, BVOP                    : No
Format settings, QPel                    : No
Format settings, GMC                     : No warppoints
Format settings, Matrix                  : Default (H.263)
Codec ID                                 : XVID
Codec ID/Hint                            : XviD
Duration                                 : 3h 6mn
Bit rate                                 : 547 Kbps
Width                                    : 640 pixels
Height                                   : 272 pixels
Display aspect ratio                     : 2.35:1
Frame rate                               : 23.976 fps
Color space                              : YUV
Chroma subsampling                       : 4:2:0
Bit depth                                : 8 bits
Scan type                                : Progressive
Compression mode                         : Lossy
Bits/(Pixel*Frame)                       : 0.131
Stream size                              : 729 MiB (86%)
Writing library                          : Lavc52.97.0

Audio
ID                                       : 1
Format                                   : MPEG Audio
Format version                           : Version 1
Format profile                           : Layer 3
Mode                                     : Joint stereo
Mode extension                           : MS Stereo
Codec ID                                 : 55
Codec ID/Hint                            : MP3
Duration                                 : 3h 6mn
Bit rate mode                            : Constant
Bit rate                                 : 80.0 Kbps
Channel(s)                               : 2 channels
Sampling rate                            : 32.0 KHz
Compression mode                         : Lossy
Stream size                              : 107 MiB (13%)
Alignment                                : Aligned on interleaves
Interleave, duration                     : 36 ms (0.86 video frame)
Interleave, preload duration             : 36 ms
Writing library                          : LAME3.99r
Encoding settings                        : -m j -V 4 -q 2 -lowpass 13.5 -b 80






http://www68.zippyshare.com/v/21655846/file.html
http://www40.zippyshare.com/v/3644386/file.html
http://www30.zippyshare.com/v/16256256/file.html
http://www35.zippyshare.com/v/98245425/file.html
http://www30.zippyshare.com/v/37290945/file.html
Bhaag Milkha Bhaag [DVDRip][VOSE][2013]
0 Puntos Score: 0/10
Visitas: 978 Favoritos: 1
4 Comentarios Bhaag Milkha Bhaag [DVDRip][VOSE][2013]
tendras mas peliculas dela india ya que ando en busca de una de un robot muy buena por cierto saludos
la parte 4 no funciona espero me ayudes
Cita radamez69: Mostrar
como que no funciona hermano?
si ..no funciona no me deja bajarla  y de la pelicula que te comente alla ariba me puedes ayudar
Para dejar un comentario Registrate! o.. eres ya usuario? Accede!