About Last Night [HDRip 720p][VOSE][2013]




La película, dirigida por Steve Pink, sigue la historia de dos parejas que van del bar al dormitorio una noche de sábado cualquiera. Al día siguiente, deberán hacer frente a lo ocurrido y enfrentarse a la cruda realidad.



Título: About Last Night
Título original: About Last Night
Dirección: Steve Pink
País: Estados Unidos
Año: 2014
Fecha de estreno: 07/02/2014
Duración: 100 min
Género: Romance, Comedia
Calificación: No recomendada para menores de 13 años
Reparto: Paula Patton, Kevin Hart, Michael Ealy, Joy Bryant, Regina Hall, Christopher McDonald, Adam Rodriguez, Joe Lo Truglio
Distribuidora: Sony Pictures Releasing
Productora: Screen Gems, Rainforest Films, Olive Bridge Entertainment

General
Format                                   : AVI
Format/Info                              : Audio Video Interleave
Format profile                           : OpenDML
File size                                : 1.95 GiB
Duration                                 : 1h 40mn
Overall bit rate                         : 2 783 Kbps
Writing application                      : Lavf52.84.0

Video
ID                                       : 0
Format                                   : MPEG-4 Visual
Format profile                           : [email protected]
Format settings, BVOP                    : No
Format settings, QPel                    : No
Format settings, GMC                     : No warppoints
Format settings, Matrix                  : Default (H.263)
Codec ID                                 : XVID
Codec ID/Hint                            : XviD
Duration                                 : 1h 40mn
Bit rate                                 : 2 578 Kbps
Width                                    : 1 280 pixels
Height                                   : 536 pixels
Display aspect ratio                     : 2.40:1
Frame rate                               : 24.000 fps
Color space                              : YUV
Chroma subsampling                       : 4:2:0
Bit depth                                : 8 bits
Scan type                                : Progressive
Compression mode                         : Lossy
Bits/(Pixel*Frame)                       : 0.157
Stream size                              : 1.80 GiB (93%)
Writing library                          : Lavc52.97.0

Audio
ID                                       : 1
Format                                   : MPEG Audio
Format version                           : Version 1
Format profile                           : Layer 3
Mode                                     : Joint stereo
Mode extension                           : MS Stereo
Codec ID                                 : 55
Codec ID/Hint                            : MP3
Duration                                 : 1h 40mn
Bit rate mode                            : Constant
Bit rate                                 : 192 Kbps
Channel(s)                               : 2 channels
Sampling rate                            : 48.0 KHz
Compression mode                         : Lossy
Stream size                              : 138 MiB (7%)
Alignment                                : Aligned on interleaves
Interleave, duration                     : 24 ms (0.58 video frame)






http://www72.zippyshare.com/v/69361402/file.html
http://www76.zippyshare.com/v/61546827/file.html
http://www10.zippyshare.com/v/40601575/file.html
http://www29.zippyshare.com/v/63477371/file.html
http://www59.zippyshare.com/v/60239383/file.html
http://www7.zippyshare.com/v/58500078/file.html
http://www60.zippyshare.com/v/55161661/file.html
http://www22.zippyshare.com/v/19628800/file.html
http://www13.zippyshare.com/v/97674840/file.html
http://www13.zippyshare.com/v/55437131/file.html
About Last Night [HDRip 720p][VOSE][2013]
0 Puntos Score: 0/10
Visitas: 826 Favoritos: 0
0 Comentarios About Last Night [HDRip 720p][VOSE][2013]
Este post no tiene comentarios. Sea el primero!
Para dejar un comentario Registrate! o.. eres ya usuario? Accede!