The Monuments Men [DVDSCR][Castellano][2014]





Película basada en la historia real de uno de los mayores robos de la historia, 'Monuments Men' se sitúa en plena Segunda Guerra Mundial. Un excéntrico pelotón de soldados del ejército aliado se dirige a Alemania para poner un montón de obras de arte a salvo de los ladrones nazis. Pero la zona a la que deben acceder está completamente custodiada por los seguidores del Führer. Tendrán que ingeniárselas para entrar sin ser vistos y cometer un robo que pasará a los anales del siglo XX. Es la quinta película de George Clooney como director.



Título: Monuments Men
Título original: The Monuments Men
Dirección: George Clooney
País: Estados Unidos
Año: 2014
Fecha de estreno: 21/02/2014
Duración: 118 min
Género: Drama, Comedia, Bélico, Acción
Calificación: No recomendada para menores de 7 años
Reparto: Matt Damon, Cate Blanchett, George Clooney, Bill Murray, John Goodman, Hugh Bonneville, Jean Dujardin, Bob Balaban, Dimitri Leonidas, Zahary Baharov
Web: Monuments Men | Official Movie Site | Sony Pictures
Distribuidora: 20th Century Fox
Productora: Fox 2000 Pictures, Studio Babelsberg

General
Format                                   : AVI
Format/Info                              : Audio Video Interleave
File size                                : 1.37 GiB
Duration                                 : 1h 58mn
Overall bit rate                         : 1 653 Kbps
Writing application                      : VirtualDubMod 1.5.10.2 (build 2542/release)
Writing library                          : VirtualDubMod build 2542/release

Video
ID                                       : 0
Format                                   : MPEG-4 Visual
Format profile                           : Advanced [email protected]
Format settings, BVOP                    : 2
Format settings, QPel                    : No
Format settings, GMC                     : No warppoints
Format settings, Matrix                  : Custom
Codec ID                                 : XVID
Codec ID/Hint                            : XviD
Duration                                 : 1h 58mn
Bit rate                                 : 1 516 Kbps
Width                                    : 720 pixels
Height                                   : 304 pixels
Display aspect ratio                     : 2.35:1
Frame rate                               : 23.976 fps
Color space                              : YUV
Chroma subsampling                       : 4:2:0
Bit depth                                : 8 bits
Scan type                                : Progressive
Compression mode                         : Lossy
Bits/(Pixel*Frame)                       : 0.289
Stream size                              : 1.25 GiB (92%)
Writing library                          : XviD 1.2.1 (UTC 2008-12-04)

Audio
ID                                       : 1
Format                                   : MPEG Audio
Format version                           : Version 1
Format profile                           : Layer 3
Codec ID                                 : 55
Codec ID/Hint                            : MP3
Duration                                 : 1h 58mn
Bit rate mode                            : Constant
Bit rate                                 : 128 Kbps
Channel(s)                               : 2 channels
Sampling rate                            : 44.1 KHz
Compression mode                         : Lossy
Stream size                              : 108 MiB (8%)
Alignment                                : Split accross interleaves
Interleave, duration                     : 42 ms (1.00 video frame)
Interleave, preload duration             : 500 ms






http://www65.zippyshare.com/v/75833571/file.html
http://www36.zippyshare.com/v/87373285/file.html
http://www67.zippyshare.com/v/54170379/file.html
http://www55.zippyshare.com/v/88594378/file.html
http://www52.zippyshare.com/v/28658841/file.html
http://www53.zippyshare.com/v/13823657/file.html
http://www44.zippyshare.com/v/72957449/file.html
The Monuments Men [DVDSCR][Castellano][2014]
0 Puntos Score: 0/10
Visitas: 951 Favoritos: 0
1 Comentarios The Monuments Men [DVDSCR][Castellano][2014]
Bajando, se agradece.
Para dejar un comentario Registrate! o.. eres ya usuario? Accede!