The Monuments Men [HDRip 720p][VOSE][2014]





Película basada en la historia real de uno de los mayores robos de la historia, 'Monuments Men' se sitúa en plena Segunda Guerra Mundial. Un excéntrico pelotón de soldados del ejército aliado se dirige a Alemania para poner un montón de obras de arte a salvo de los ladrones nazis. Pero la zona a la que deben acceder está completamente custodiada por los seguidores del Führer. Tendrán que ingeniárselas para entrar sin ser vistos y cometer un robo que pasará a los anales del siglo XX. Es la quinta película de George Clooney como director.



Título: Monuments Men
Título original: The Monuments Men
Dirección: George Clooney
País: Estados Unidos
Año: 2014
Fecha de estreno: 21/02/2014
Duración: 118 min
Género: Drama, Comedia, Bélico, Acción
Calificación: No recomendada para menores de 7 años
Reparto: Matt Damon, Cate Blanchett, George Clooney, Bill Murray, John Goodman, Hugh Bonneville, Jean Dujardin, Bob Balaban, Dimitri Leonidas, Zahary Baharov
Web: Monuments Men | Official Movie Site | Sony Pictures
Distribuidora: 20th Century Fox
Productora: Fox 2000 Pictures, Studio Babelsberg

General
Format                                   : AVI
Format/Info                              : Audio Video Interleave
Format profile                           : OpenDML
File size                                : 1.95 GiB
Duration                                 : 1h 58mn
Overall bit rate                         : 2 360 Kbps
Writing application                      : Lavf52.84.0

Video
ID                                       : 0
Format                                   : MPEG-4 Visual
Format profile                           : [email protected]
Format settings, BVOP                    : No
Format settings, QPel                    : No
Format settings, GMC                     : No warppoints
Format settings, Matrix                  : Default (H.263)
Codec ID                                 : XVID
Codec ID/Hint                            : XviD
Duration                                 : 1h 58mn
Bit rate                                 : 2 155 Kbps
Width                                    : 1 280 pixels
Height                                   : 536 pixels
Display aspect ratio                     : 2.40:1
Frame rate                               : 24.000 fps
Color space                              : YUV
Chroma subsampling                       : 4:2:0
Bit depth                                : 8 bits
Scan type                                : Progressive
Compression mode                         : Lossy
Bits/(Pixel*Frame)                       : 0.131
Stream size                              : 1.78 GiB (91%)
Writing library                          : Lavc52.97.0

Audio
ID                                       : 1
Format                                   : MPEG Audio
Format version                           : Version 1
Format profile                           : Layer 3
Mode                                     : Joint stereo
Mode extension                           : MS Stereo
Codec ID                                 : 55
Codec ID/Hint                            : MP3
Duration                                 : 1h 58mn
Bit rate mode                            : Constant
Bit rate                                 : 192 Kbps
Channel(s)                               : 2 channels
Sampling rate                            : 48.0 KHz
Compression mode                         : Lossy
Stream size                              : 163 MiB (8%)
Alignment                                : Aligned on interleaves
Interleave, duration                     : 24 ms (0.58 video frame)
Writing library                          : LAME3.98.4






http://www32.zippyshare.com/v/86722466/file.html
http://www24.zippyshare.com/v/32005025/file.html
http://www22.zippyshare.com/v/38103630/file.html
http://www48.zippyshare.com/v/24875084/file.html
http://www48.zippyshare.com/v/9822366/file.html
http://www22.zippyshare.com/v/93396658/file.html
http://www8.zippyshare.com/v/43892954/file.html
http://www12.zippyshare.com/v/9602396/file.html
http://www31.zippyshare.com/v/97201695/file.html
http://www59.zippyshare.com/v/67448985/file.html
The Monuments Men [HDRip 720p][VOSE][2014]
5 Puntos Score: 5/10
Visitas: 1339 Favoritos: 1
Ver los usuarios que votaron...
2 Comentarios The Monuments Men [HDRip 720p][VOSE][2014]
gracias por tu aporte
Pongo a descargar muchas gracias por el aporte, muy malo el servidor baja muy lento
Para dejar un comentario Registrate! o.. eres ya usuario? Accede!