Pompei [HDRip 720p][VOSE][2014]




Un esclavo convertido en gladiador se encuentra a sí mismo en una carrera contra el tiempo para salvar a su verdadero amor, quien se ha prometido con un corrupto senador romano. Cuando el Monte Vesubio entre en erupción, deberá luchar para salvar a su amada mientras Pompeya se va derrumbando a su alrededor.



Título: Pompeya
Título original: Pompeii
Dirección: Paul W.S. Anderson
País: Estados Unidos, Alemania
Año: 2014
Fecha de estreno: 25/04/2014
Duración: -
Género: Drama, Aventuras, Acción
Reparto: Emily Browning, Kit Harington, Kiefer Sutherland, Jared Harris, Carrie-Anne Moss, Adewale Akinnuoye-Agbaje, Jessica Lucas
Distribuidora: eOne Films
Productora: Constantin Film Produktion, Don Carmody Productions

General
Format                                   : AVI
Format/Info                              : Audio Video Interleave
Format profile                           : OpenDML
File size                                : 1.95 GiB
Duration                                 : 1h 44mn
Overall bit rate                         : 2 661 Kbps
Writing application                      : Lavf52.84.0

Video
ID                                       : 0
Format                                   : MPEG-4 Visual
Format profile                           : [email protected]
Format settings, BVOP                    : No
Format settings, QPel                    : No
Format settings, GMC                     : No warppoints
Format settings, Matrix                  : Default (H.263)
Codec ID                                 : XVID
Codec ID/Hint                            : XviD
Duration                                 : 1h 44mn
Bit rate                                 : 2 456 Kbps
Width                                    : 1 280 pixels
Height                                   : 536 pixels
Display aspect ratio                     : 2.40:1
Frame rate                               : 24.000 fps
Color space                              : YUV
Chroma subsampling                       : 4:2:0
Bit depth                                : 8 bits
Scan type                                : Progressive
Compression mode                         : Lossy
Bits/(Pixel*Frame)                       : 0.149
Stream size                              : 1.80 GiB (92%)
Writing library                          : Lavc52.97.0

Audio
ID                                       : 1
Format                                   : MPEG Audio
Format version                           : Version 1
Format profile                           : Layer 3
Mode                                     : Joint stereo
Mode extension                           : MS Stereo
Codec ID                                 : 55
Codec ID/Hint                            : MP3
Duration                                 : 1h 44mn
Bit rate mode                            : Constant
Bit rate                                 : 192 Kbps
Channel(s)                               : 2 channels
Sampling rate                            : 48.0 KHz
Compression mode                         : Lossy
Stream size                              : 144 MiB (7%)
Alignment                                : Aligned on interleaves
Interleave, duration                     : 24 ms (0.58 video frame)
Writing library                          : LAME3.98.4






http://www48.zippyshare.com/v/14950569/file.html
http://www45.zippyshare.com/v/4948586/file.html
http://www56.zippyshare.com/v/72051072/file.html
http://www25.zippyshare.com/v/33675412/file.html
http://www38.zippyshare.com/v/81239649/file.html
http://www21.zippyshare.com/v/94772434/file.html
http://www30.zippyshare.com/v/19601817/file.html
http://www71.zippyshare.com/v/90733811/file.html
http://www50.zippyshare.com/v/32576493/file.html
http://www22.zippyshare.com/v/93425680/file.html
[/size]
Pompei [HDRip 720p][VOSE][2014]
5 Puntos Score: 5/10
Visitas: 826 Favoritos: 2
Ver los usuarios que votaron...
4 Comentarios Pompei [HDRip 720p][VOSE][2014]
Gracias por compartir, veamos !!!!
peliculon la queria en buena calidad para la coleccion gracias no tengo mas puntos q estos +5
Gracias por la peli! la buscaba en buena calidad y justo la posteaste. Saludos!
lamentablemente los links est?
Para dejar un comentario Registrate! o.. eres ya usuario? Accede!