La Fortaleza [TSHQ][Castellano][2014]




En un Detroit distópico, los antiguos bloques de ladrillo ahora dan cobijo a algunos de los delincuentes más peligrosos de la ciudad. En un intento desesperado por proteger el resto de la ciudad, la policía construye, alrededor de esos edificios, un muro de contención. Mientras el agente secreto Damien Collier (Paul Walker) libra, día tras día, una dura batalla contra la corrupción, Lino (David Belle), un ex convicto lucha por llevar una vida honesta.
Sus caminos nunca deberían haberse cruzado, pero cuando el capo de la droga, Tremaine (RZA) secuestra a la novia de Lino, Damien se ve obligado a aceptar su ayuda para intentar detener una siniestra trama que pretende acabar con toda la ciudad.



Título: Brick Mansions (La fortaleza)
Título original: Brick Mansions
Dirección: Camille Delamarre
País: Francia, Canadá
Año: 2014
Fecha de estreno: 25/04/2014
Duración: 90 min
Género: Criminal, Drama, Acción
Reparto: Paul Walker, David Belle, RZA, Robert Maillet, Carlo Rota, Bruce Ramsay, Catalina Denis, Ayisha Issa
Distribuidora: Avalon Productions
Productora: EuropaCorp

General
Format                                   : AVI
Format/Info                              : Audio Video Interleave
File size                                : 995 MiB
Duration                                 : 1h 23mn
Overall bit rate                         : 1 658 Kbps
Writing application                      : VirtualDubMod 1.5.10.2 (build 2540/release)
Writing library                          : VirtualDubMod build 2540/release

Video
ID                                       : 0
Format                                   : MPEG-4 Visual
Format profile                           : [email protected]
Format settings, BVOP                    : No
Format settings, QPel                    : No
Format settings, GMC                     : No warppoints
Format settings, Matrix                  : Default (H.263)
Codec ID                                 : XVID
Codec ID/Hint                            : XviD
Duration                                 : 1h 23mn
Bit rate                                 : 1 454 Kbps
Width                                    : 720 pixels
Height                                   : 304 pixels
Display aspect ratio                     : 2.35:1
Frame rate                               : 29.970 fps
Color space                              : YUV
Chroma subsampling                       : 4:2:0
Bit depth                                : 8 bits
Scan type                                : Progressive
Compression mode                         : Lossy
Bits/(Pixel*Frame)                       : 0.222
Stream size                              : 873 MiB (88%)
Writing library                          : Lavc52.97.0

Audio
ID                                       : 1
Format                                   : MPEG Audio
Format version                           : Version 1
Format profile                           : Layer 3
Codec ID                                 : 55
Codec ID/Hint                            : MP3
Duration                                 : 1h 23mn
Bit rate mode                            : Constant
Bit rate                                 : 192 Kbps
Channel(s)                               : 2 channels
Sampling rate                            : 44.1 KHz
Compression mode                         : Lossy
Stream size                              : 115 MiB (12%)
Alignment                                : Split accross interleaves
Interleave, duration                     : 33 ms (1.00 video frame)
Interleave, preload duration             : 500 ms






http://www26.zippyshare.com/v/70469678/file.html
http://www59.zippyshare.com/v/91519713/file.html
http://www58.zippyshare.com/v/6105248/file.html
http://www58.zippyshare.com/v/36405563/file.html
http://www10.zippyshare.com/v/47727295/file.html
La Fortaleza [TSHQ][Castellano][2014]
0 Puntos Score: 0/10
Visitas: 1469 Favoritos: 0
0 Comentarios La Fortaleza [TSHQ][Castellano][2014]
Este post no tiene comentarios. Sea el primero!
Para dejar un comentario Registrate! o.. eres ya usuario? Accede!